 0
SECTION
 2
HEADER
 9
$ACADVER
 1
AC1003
 9
$EXTMIN
 10
5000.000000
 20
648.011841
 9
$EXTMAX
 10
50125.769531
 20
71750.000000
 9
$LIMMIN
 10
4999.999000
 20
648.010841
 9
$LIMMAX
 10
50125.770531
 20
71750.001000
 9
$SNAPUNIT
 10
1
 20
1
 9
$SNAPBASE
 10
0
 20
0
 9
$GRIDMODE
 70
0
 9
$GRIDUNIT
 10
0
 20
0
 9
$LTSCALE
 40
1185.033136
 9
$TEXTSIZE
 40
3.2
 9
$DIMTAD
 70
0
 9
$LUNITS
 70
2
 9
$LUPREC
 70
4
 9
$FILLETRAD
 40
0
 9
$AUNITS
 70
0
 9
$AUPREC
 70
0
 0
ENDSEC
 0
SECTION
 2
TABLES
 0
TABLE
 2
LTYPE
 70
2
 0
LTYPE
 2
CONTINUOUS
 70
64
 3
Solid-Line
 72
65
 73
0
 40
0
 0
LTYPE
 2
DASHED
 70
64
 3
DASHED
 72
65
 73
2
 40
.75
 49
.5
 49
-.25
 0
LTYPE
 2
HIDDEN
 70
64
 3
HIDDEN
 72
65
 73
2
 40
.375
 49
.25
 49
-.125
 0
LTYPE
 2
CENTER
 70
64
 3
CENTER
 72
65
 73
4
 40
2
 49
1.25
 49
-.25
 49
.25
 49
-.25
 0
LTYPE
 2
PHANTOM
 70
64
 3
PHANTOM
 72
65
 73
6
 40
2.5
 49
1.25
 49
-.25
 49
.25
 49
-.25
 49
.25
 49
-.25
 0
ENDTAB
 0
TABLE
 2
LAYER
 70
2
 0
LAYER
 2
001
 70
0
 62
7
 6
CONTINUOUS
 0
LAYER
 2
100
 70
0
 62
7
 6
CONTINUOUS
 0
ENDTAB
 0
TABLE
 2
STYLE
 70
2
 0
STYLE
 2
STANDARD
 70
0
 40
0
 41
1
 50
0
 71
0
 42
.2
 3
TXT
 4
BIGFONT
 0
STYLE
 2
TATEGAKI
 70
4
 40
1
 41
1
 50
0
 71
0
 42
.2
 3
TXT
 4
BIGFONT
 0
ENDTAB
 0
ENDSEC
 0
SECTION
 2
BLOCKS
 0
BLOCK
 8
001
 2
PART0
 70
10
 10
0.0
 20
0.0
 0
TEXT
 8
100
 10
20192.633997
 20
41978.406092
 40
387.500000
 1
 
 50
96.018506
 41
0.400000
 7
STANDARD
 0
TEXT
 8
100
 10
20577.998129
 20
42019.035336
 40
387.500000
 1
 
 50
96.018506
 41
0.400000
 7
STANDARD
 0
ARC
 8
100
 10
12006.333500
 20
40087.151000
 40
8819.566500
 50
0.000000
 51
14.999998
 0
TEXT
 8
100
 10
20773.018500
 20
40169.287500
 40
775.000000
 1
15%%127
 50
96.018506
 41
0.883333
 7
STANDARD
 0
ENDBLK
 8
001
 0
BLOCK
 8
0
 2
ARROW
 70
10
 10
0
 20
0
 0
POLYLINE
 8
0
 6
CONTINUOUS
 62
0
 66
1
 0
VERTEX
 8
0
 6
CONTINUOUS
 62
0
 10
600.000000
 20
160.769515
 0
VERTEX
 8
0
 6
CONTINUOUS
 62
0
 10
0.0
 20
0.0
 0
VERTEX
 8
0
 6
CONTINUOUS
 62
0
 10
600.000000
 20
-160.769515
 0
SEQEND
 8
0
 0
ENDBLK
 8
0
 0
BLOCK
 8
100
 2
*D0
 70
1
 10
0.0
 20
0.0
 0
LINE
 8
100
 10
32111.885500
 20
10420.444000
 11
30096.403750
 21
12435.925750
 0
LINE
 8
100
 10
32497.455250
 20
10459.138250
 11
30308.535750
 21
12648.057750
 0
LINE
 8
100
 10
30220.147500
 20
12312.182000
 11
30432.279625
 21
12524.314125
 0
INSERT
 8
100
 62
7
 2
ARROW
 6
BYBLOCK
 10
30220.147500
 20
12312.182000
 41
1.000000
 42
1.000000
 50
225.000000
 0
INSERT
 8
100
 62
7
 2
ARROW
 6
BYBLOCK
 10
30432.279625
 20
12524.314125
 41
1.000000
 42
1.000000
 50
45.000000
 0
TEXT
 8
100
 10
29635.119250
 20
12090.921750
 40
775.000000
 1
300
 50
45.000001
 41
0.866667
 7
STANDARD
 0
TEXT
 8
100
 10
30676.333985
 20
13680.144241
 40
387.500000
 1
 
 50
45.000001
 41
0.400000
 7
STANDARD
 0
TEXT
 8
100
 10
30950.337863
 20
13406.140363
 40
387.500000
 1
 
 50
45.000001
 41
0.400000
 7
STANDARD
 0
POINT
 8
100
 10
32111.885500
 20
10420.444000
 0
POINT
 8
100
 10
32497.455250
 20
10459.138250
 0
POINT
 8
100
 10
30432.279625
 20
12524.314125
 0
LINE
 8
100
 10
30220.147500
 20
12312.182000
 11
29159.487328
 21
11251.521828
 0
LINE
 8
100
 10
30432.279625
 20
12524.314125
 11
31492.939797
 21
13584.974297
 0
ENDBLK
 8
100
 0
BLOCK
 8
100
 2
*D1
 70
1
 10
0.0
 20
0.0
 0
LINE
 8
100
 10
32266.644500
 20
9817.216750
 11
30247.689500
 21
7798.261750
 0
LINE
 8
100
 10
32125.223250
 20
9958.638250
 11
30106.268250
 21
7939.683250
 0
LINE
 8
100
 10
30371.433000
 20
7922.005500
 11
30230.011750
 21
8063.426750
 0
INSERT
 8
100
 62
7
 2
ARROW
 6
BYBLOCK
 10
30371.433000
 20
7922.005500
 41
1.000000
 42
1.000000
 50
315.000000
 0
INSERT
 8
100
 62
7
 2
ARROW
 6
BYBLOCK
 10
30230.011750
 20
8063.426750
 41
1.000000
 42
1.000000
 50
135.000000
 0
TEXT
 8
100
 10
29059.043500
 20
7845.147500
 40
775.000000
 1
200
 50
315.000019
 41
0.866667
 7
STANDARD
 0
TEXT
 8
100
 10
30648.265991
 20
6803.932765
 40
387.500000
 1
 
 50
315.000019
 41
0.400000
 7
STANDARD
 0
TEXT
 8
100
 10
30374.262113
 20
6529.928887
 40
387.500000
 1
 
 50
315.000019
 41
0.400000
 7
STANDARD
 0
POINT
 8
100
 10
32266.644500
 20
9817.216750
 0
POINT
 8
100
 10
32125.223250
 20
9958.638250
 0
POINT
 8
100
 10
30230.011750
 20
8063.426750
 0
LINE
 8
100
 10
30371.433000
 20
7922.005500
 11
31432.093172
 21
6861.345328
 0
LINE
 8
100
 10
30230.011750
 20
8063.426750
 11
29169.351578
 21
9124.086922
 0
ENDBLK
 8
100
 0
ENDSEC
 0
SECTION
 2
ENTITIES
 0
INSERT
 8
001
 62
0
 2
PART0
 6
BYBLOCK
 10
0.000000
 20
0.000000
 41
1.000000
 42
1.000000
 0
DIMENSION
 8
100
 2
*D0
 10
30432.279625
 20
12524.314125
 11
29635.119250
 21
12090.921750
 13
32111.885500
 23
10420.444000
 14
32497.455250
 24
10459.138250
 50
45.000000
 0
DIMENSION
 8
100
 2
*D1
 10
30230.011750
 20
8063.426750
 11
29059.043500
 21
7845.147500
 13
32266.644500
 23
9817.216750
 14
32125.223250
 24
9958.638250
 50
135.000000
 0
LINE
 8
001
 62
3
 10
14833.929000
 20
41248.468750
 11
14990.520500
 21
40664.061750
 0
CIRCLE
 8
001
 62
3
 10
11668.645750
 20
40087.151000
 40
96.416750
 0
LINE
 8
001
 62
3
 10
18685.205750
 20
42469.215000
 11
11172.836771
 21
39954.299471
 0
LINE
 8
001
 62
3
 10
18948.960250
 20
41535.097500
 11
14973.665500
 21
40726.965000
 0
LINE
 8
001
 62
3
 10
18542.697500
 20
42421.507500
 11
18788.927500
 21
41502.564750
 0
LINE
 8
001
 62
3
 10
16608.385500
 20
41773.958000
 11
16789.989500
 21
41096.203250
 0
LINE
 8
001
 62
3
 10
14884.215750
 20
41196.757750
 11
15280.424500
 21
40789.325500
 0
LINE
 8
001
 62
3
 10
15351.425500
 20
40803.759250
 11
15498.437000
 21
41402.380500
 0
LINE
 8
001
 62
3
 10
15564.520000
 20
41424.503000
 11
16007.233000
 21
40937.077500
 0
LINE
 8
001
 62
3
 10
16071.310250
 20
40950.103750
 11
16203.153750
 21
41638.298500
 0
LINE
 8
001
 62
3
 10
16263.344250
 20
41658.448500
 11
16757.839000
 21
41089.667250
 0
LINE
 8
001
 62
3
 10
18881.216500
 20
41521.326000
 11
18756.609500
 21
41986.365250
 0
LINE
 8
001
 62
3
 10
18756.609500
 20
41986.365250
 11
18632.002750
 21
42451.404250
 0
LINE
 8
001
 62
3
 10
16819.714500
 20
41102.246000
 11
16967.548750
 21
41894.195000
 0
LINE
 8
001
 62
3
 10
17026.854000
 20
41914.048750
 11
17588.741500
 21
41258.580500
 0
LINE
 8
001
 62
3
 10
17648.465000
 20
41270.721500
 11
17723.132000
 21
41724.106500
 0
LINE
 8
001
 62
3
 10
18526.947750
 20
42093.916250
 11
18542.697500
 21
42421.507500
 0
LINE
 8
001
 6
CENTER
 62
3
 10
43989.485500
 20
49087.517250
 11
44152.591500
 21
48478.797000
 0
LINE
 8
001
 62
3
 10
18732.907000
 20
42414.830000
 11
18696.672250
 21
42550.059750
 0
LINE
 8
001
 62
3
 10
18950.315000
 20
41603.452250
 11
18983.961500
 21
41477.882000
 0
LINE
 8
001
 62
3
 10
18950.315000
 20
41603.452250
 11
18986.549750
 21
41468.222750
 0
LINE
 8
001
 62
3
 10
19004.902250
 20
41473.140250
 11
18715.025000
 21
42554.977250
 0
LINE
 8
001
 62
3
 10
18734.436250
 20
42482.532750
 11
25304.663750
 21
44243.020000
 0
LINE
 8
001
 62
3
 10
18985.490750
 20
41545.584750
 11
25555.718250
 21
43306.072000
 0
LINE
 8
001
 62
3
 10
22270.604500
 20
42425.828250
 11
22019.550000
 21
43362.776250
 0
LINE
 8
001
 62
3
 10
22019.550000
 20
43362.776250
 11
22270.604500
 21
42425.828250
 0
LINE
 8
001
 62
3
 10
21996.091000
 20
43356.490500
 11
21897.736750
 21
42325.918750
 0
LINE
 8
001
 62
3
 10
21849.938750
 20
42313.111250
 11
21236.374750
 21
43152.925250
 0
LINE
 8
001
 62
3
 10
21188.137000
 20
43140.000000
 11
21083.232500
 21
42107.673000
 0
LINE
 8
001
 62
3
 10
21035.434500
 20
42094.865500
 11
20428.421000
 21
42936.434500
 0
LINE
 8
001
 62
3
 10
20380.623250
 20
42923.627250
 11
20275.718500
 21
41891.300250
 0
LINE
 8
001
 62
3
 10
20227.920500
 20
41878.492750
 11
19620.907000
 21
42720.062000
 0
LINE
 8
001
 62
3
 10
19573.109250
 20
42707.254500
 11
19468.204500
 21
41674.927500
 0
LINE
 8
001
 62
3
 10
18813.393000
 20
42503.689250
 11
19420.406500
 21
41662.120000
 0
LINE
 8
001
 62
3
 10
22043.009250
 20
43369.062250
 11
22643.472500
 21
42525.738000
 0
LINE
 8
001
 62
3
 10
22691.270250
 20
42538.545500
 11
22802.725250
 21
43572.627500
 0
LINE
 8
001
 62
3
 10
22850.963000
 20
43585.552750
 11
23457.976500
 21
42743.983750
 0
LINE
 8
001
 62
3
 10
23505.774500
 20
42756.791250
 11
23610.679000
 21
43789.118000
 0
LINE
 8
001
 62
3
 10
23658.477000
 20
43801.925500
 11
24265.490500
 21
42960.356500
 0
LINE
 8
001
 62
3
 10
24313.288500
 20
42973.163750
 11
24418.193000
 21
44005.490750
 0
LINE
 8
001
 62
3
 10
24465.991000
 20
44018.298250
 11
25073.004500
 21
43176.729250
 0
LINE
 8
001
 62
3
 10
25225.707000
 20
44221.863500
 11
25120.802500
 21
43189.536500
 0
LINE
 8
001
 62
3
 10
18717.613000
 20
42545.318000
 11
25287.840500
 21
44305.805000
 0
LINE
 8
001
 62
3
 10
19002.314000
 20
41482.799500
 11
25572.541500
 21
43243.286750
 0
LINE
 8
001
 62
3
 10
18701.997250
 20
42406.547750
 11
18665.762750
 21
42541.777500
 0
LINE
 8
001
 62
3
 10
25339.839750
 20
44185.152250
 11
25303.605000
 21
44320.382000
 0
LINE
 8
001
 62
3
 10
25557.247750
 20
43373.774750
 11
25590.894000
 21
43248.204250
 0
LINE
 8
001
 62
3
 10
25557.247750
 20
43373.774750
 11
25590.894000
 21
43248.204250
 0
LINE
 8
001
 62
3
 10
25647.481250
 20
43330.659750
 11
25396.426750
 21
44267.607750
 0
LINE
 8
001
 62
3
 10
25341.369000
 20
44252.855000
 11
31911.596500
 21
46013.342250
 0
LINE
 8
001
 62
3
 10
25592.423500
 20
43315.907000
 11
32162.651000
 21
45076.394250
 0
LINE
 8
001
 62
3
 10
25611.835000
 20
43243.462500
 11
25324.545750
 21
44315.640250
 0
LINE
 8
001
 62
3
 10
25609.246750
 20
43253.121750
 11
25573.012000
 21
43388.351500
 0
LINE
 8
001
 62
3
 10
25360.780500
 20
44180.410500
 11
25321.957500
 21
44325.299500
 0
LINE
 8
001
 62
3
 10
32199.356000
 20
45086.229250
 11
37156.487500
 21
46414.488500
 0
LINE
 8
001
 62
3
 10
31948.301750
 20
46023.177250
 11
36905.433000
 21
47351.436750
 0
LINE
 8
001
 62
3
 10
32218.767500
 20
45013.784750
 11
31928.890250
 21
46095.621750
 0
LINE
 8
001
 62
3
 10
37175.899000
 20
46342.044250
 11
36886.021500
 21
47423.881000
 0
LINE
 8
001
 62
3
 10
37194.251500
 20
46346.961750
 11
37158.016750
 21
46482.191250
 0
LINE
 8
001
 62
3
 10
32262.141250
 20
45103.052500
 11
32011.086750
 21
46040.000500
 0
LINE
 8
001
 62
3
 10
36940.608750
 20
47293.569000
 11
36904.374250
 21
47428.798750
 0
LINE
 8
001
 62
3
 10
32028.183750
 20
46044.581750
 11
32653.631000
 21
45207.952000
 0
LINE
 8
001
 62
3
 10
32701.347750
 20
45220.737500
 11
32806.333500
 21
46253.086250
 0
LINE
 8
001
 62
3
 10
32854.050250
 20
46265.872000
 11
33461.145000
 21
45424.324500
 0
LINE
 8
001
 62
3
 10
33508.861750
 20
45437.110250
 11
33613.847500
 21
46469.459000
 0
LINE
 8
001
 62
3
 10
33661.564250
 20
46482.244750
 11
34268.659000
 21
45640.697250
 0
LINE
 8
001
 62
3
 10
34316.375750
 20
45653.483000
 11
34421.361500
 21
46685.831750
 0
LINE
 8
001
 62
3
 10
34469.078250
 20
46698.617500
 11
35076.173000
 21
45857.070000
 0
LINE
 8
001
 62
3
 10
35123.889750
 20
45869.855750
 11
35228.875500
 21
46902.204500
 0
LINE
 8
001
 62
3
 10
35276.592250
 20
46914.990000
 11
35883.687000
 21
46073.442750
 0
LINE
 8
001
 62
3
 10
35931.403750
 20
46086.228500
 11
36036.389500
 21
47118.577250
 0
LINE
 8
001
 62
3
 10
36084.106250
 20
47131.362750
 11
36672.848500
 21
46284.898000
 0
LINE
 8
001
 62
3
 10
36720.565250
 20
46297.683500
 11
36825.551000
 21
47330.032250
 0
LINE
 8
001
 62
3
 10
37093.702250
 20
46397.665500
 11
36842.647750
 21
47334.613500
 0
LINE
 8
001
 62
3
 10
25575.129750
 20
43233.627500
 11
25285.252500
 21
44315.464500
 0
LINE
 8
001
 62
3
 10
25593.482250
 20
43238.545000
 11
25557.247750
 21
43373.774750
 0
LINE
 8
001
 62
3
 10
18985.490750
 20
41545.584750
 11
25555.718250
 21
43306.072000
 0
LINE
 8
001
 62
3
 10
25592.423500
 20
43315.907000
 11
32162.651000
 21
45076.394250
 0
LINE
 8
001
 62
3
 10
25492.933000
 20
43289.248750
 11
25241.878750
 21
44226.196750
 0
LINE
 8
001
 62
3
 10
32182.062250
 20
45003.949750
 11
31892.185000
 21
46085.786750
 0
LINE
 8
001
 62
3
 10
32200.415000
 20
45008.867250
 11
32164.180250
 21
45144.097000
 0
LINE
 8
001
 62
3
 10
31946.772250
 20
45955.474500
 11
31910.537500
 21
46090.704250
 0
LINE
 8
001
 62
3
 10
32099.865750
 20
45059.571000
 11
31848.811250
 21
45996.519000
 0
LINE
 8
001
 62
3
 10
19048.276000
 20
41562.408000
 11
18797.221500
 21
42499.356000
 0
LINE
 8
001
 62
3
 10
25420.325750
 20
44274.011500
 11
26027.339250
 21
43432.442250
 0
LINE
 8
001
 62
3
 10
26180.041750
 20
44477.576750
 11
26075.137250
 21
43445.249750
 0
LINE
 8
001
 62
3
 10
26834.853250
 20
43648.815000
 11
26227.839750
 21
44490.384250
 0
LINE
 8
001
 62
3
 10
26987.555750
 20
44693.949500
 11
26882.651250
 21
43661.622500
 0
LINE
 8
001
 62
3
 10
27642.367250
 20
43865.187750
 11
27035.353750
 21
44706.757000
 0
LINE
 8
001
 62
3
 10
27795.069750
 20
44910.322250
 11
27690.165250
 21
43877.995250
 0
LINE
 8
001
 62
3
 10
28456.871500
 20
44083.433500
 11
27843.307500
 21
44923.247500
 0
LINE
 8
001
 62
3
 10
28603.023500
 20
45126.812750
 11
28504.669250
 21
44096.241000
 0
LINE
 8
001
 62
3
 10
28626.482750
 20
45133.098500
 11
28877.537250
 21
44196.150500
 0
LINE
 8
001
 62
3
 10
28649.942000
 20
45139.384500
 11
29250.405000
 21
44296.060250
 0
LINE
 8
001
 62
3
 10
29298.203000
 20
44308.867750
 11
29409.658000
 21
45342.949750
 0
LINE
 8
001
 62
3
 10
29457.895750
 20
45355.875000
 11
30064.909250
 21
44514.306000
 0
LINE
 8
001
 62
3
 10
30112.707250
 20
44527.113500
 11
30217.611750
 21
45559.440250
 0
LINE
 8
001
 62
3
 10
30265.409750
 20
45572.247750
 11
30872.423250
 21
44730.678750
 0
LINE
 8
001
 62
3
 10
30920.221250
 20
44743.486000
 11
31025.125750
 21
45775.813000
 0
LINE
 8
001
 62
3
 10
31072.923750
 20
45788.620500
 11
31679.937250
 21
44947.051500
 0
LINE
 8
001
 62
3
 10
31832.639750
 20
45992.185750
 11
31727.735250
 21
44959.858750
 0
LINE
 8
001
 62
3
 10
32272.203000
 20
45038.455500
 11
37173.310750
 21
46351.703500
 0
LINE
 8
001
 62
3
 10
36974.106750
 20
47292.192000
 11
36935.283750
 21
47437.081000
 0
LINE
 8
001
 62
3
 10
37212.604000
 20
46351.879250
 11
37173.781250
 21
46496.768250
 0
LINE
 8
001
 62
3
 10
36974.106750
 20
47292.192000
 11
37173.781250
 21
46496.768250
 0
LINE
 8
001
 62
3
 10
36886.021500
 20
47423.881000
 11
36935.283750
 21
47437.081000
 0
LINE
 8
001
 62
3
 10
37194.251500
 20
46346.961750
 11
37212.604000
 21
46351.879250
 0
LINE
 8
001
 62
3
 10
36922.256250
 20
47288.651500
 11
36971.518500
 21
47301.851250
 0
LINE
 8
001
 62
3
 10
37139.664250
 20
46477.273750
 11
37176.369500
 21
46487.109000
 0
LINE
 8
001
 62
3
 10
37175.899000
 20
46342.044250
 11
37212.604000
 21
46351.879250
 0
LINE
 8
001
 62
3
 10
31892.185000
 20
46085.786750
 11
31928.890250
 21
46095.621750
 0
LINE
 8
001
 62
3
 10
32182.062250
 20
45003.949750
 11
32218.767500
 21
45013.784750
 0
LINE
 8
001
 62
3
 10
31928.419750
 20
45950.557000
 11
31965.125000
 21
45960.392250
 0
LINE
 8
001
 62
3
 10
32145.827750
 20
45139.179250
 11
32182.533000
 21
45149.014500
 0
LINE
 8
001
 62
3
 10
32216.179250
 20
45023.444000
 11
37173.310750
 21
46351.703500
 0
LINE
 8
001
 62
3
 10
31931.478500
 20
46085.962500
 11
36888.609750
 21
47414.221750
 0
LINE
 8
001
 62
3
 10
25285.252500
 20
44315.464500
 11
25321.957500
 21
44325.299500
 0
LINE
 8
001
 62
3
 10
25575.129750
 20
43233.627500
 11
25611.835000
 21
43243.462500
 0
LINE
 8
001
 62
3
 10
25538.895000
 20
43368.857000
 11
25575.600250
 21
43378.692250
 0
LINE
 8
001
 62
3
 10
25321.487000
 20
44180.234750
 11
25358.192250
 21
44190.070000
 0
LINE
 8
001
 62
3
 10
18717.613000
 20
42545.318000
 11
25287.840500
 21
44305.805000
 0
LINE
 8
001
 62
3
 10
25324.545750
 20
44315.640250
 11
31894.773250
 21
46076.127500
 0
LINE
 8
001
 62
3
 10
19002.314000
 20
41482.799500
 11
25572.541500
 21
43243.286750
 0
LINE
 8
001
 62
3
 10
25609.246750
 20
43253.121750
 11
32179.474250
 21
45013.609000
 0
LINE
 8
001
 62
3
 10
18665.762750
 20
42541.777500
 11
18715.025000
 21
42554.977250
 0
LINE
 8
001
 62
3
 10
18968.197000
 20
41463.305250
 11
19004.902250
 21
41473.140250
 0
LINE
 8
001
 62
3
 10
18701.997250
 20
42406.547750
 11
18751.259500
 21
42419.747500
 0
LINE
 8
001
 62
3
 10
18931.962500
 20
41598.534750
 11
18968.667500
 21
41608.370000
 0
LINE
 8
001
 62
3
 10
18931.962500
 20
41598.534750
 11
18968.197000
 21
41463.305250
 0
LINE
 8
001
 62
3
 10
18701.997250
 20
42406.547750
 11
18931.962500
 21
41598.534750
 0
LINE
 8
001
 62
3
 10
44147.790250
 20
48883.086250
 11
44194.377750
 21
48709.219750
 0
LINE
 8
001
 62
3
 10
43954.605000
 20
48831.322500
 11
44147.790250
 21
48883.086250
 0
LINE
 8
001
 62
3
 10
44001.192500
 20
48657.456000
 11
44194.377750
 21
48709.219750
 0
LINE
 8
001
 62
3
 10
44152.076750
 20
48890.271000
 11
44201.682250
 21
48705.140750
 0
LINE
 8
001
 62
3
 10
43954.605000
 20
48831.322500
 11
44001.192500
 21
48657.456000
 0
LINE
 8
001
 62
3
 10
42969.961250
 20
48603.722750
 11
43034.666000
 21
48362.241250
 0
LINE
 8
001
 62
3
 10
37440.525000
 20
47251.524250
 11
39372.376750
 21
47769.162250
 0
LINE
 8
001
 62
3
 10
37569.934500
 20
46768.561250
 11
39501.786250
 21
47286.199500
 0
LINE
 8
001
 62
3
 10
42969.961250
 20
48603.722750
 11
43955.927250
 21
48787.750750
 0
LINE
 8
001
 62
3
 10
43034.666000
 20
48362.241250
 11
43980.546000
 21
48695.872750
 0
LINE
 8
001
 62
3
 10
43955.927250
 20
48787.750750
 11
43980.546000
 21
48695.872750
 0
CIRCLE
 8
001
 62
3
 10
44074.491250
 20
48770.271000
 40
186.000000
 0
LINE
 8
001
 62
3
 10
44272.159500
 20
48843.941750
 11
44285.100250
 21
48795.645250
 0
LINE
 8
001
 62
3
 10
44171.703000
 20
48817.024500
 11
44272.159500
 21
48843.941750
 0
LINE
 8
001
 62
3
 10
44178.848500
 20
48767.175250
 11
44285.100250
 21
48795.645250
 0
LINE
 8
001
 62
3
 10
37018.574250
 20
47377.377500
 11
37267.232250
 21
46449.372750
 0
LINE
 8
001
 62
3
 10
39985.698500
 20
47976.166250
 11
40136.318500
 21
47414.045500
 0
LINE
 8
001
 62
3
 10
39626.462000
 20
47903.669500
 11
40118.544750
 21
47408.069500
 0
LINE
 8
001
 62
3
 10
37657.798000
 20
46580.692750
 11
37023.241750
 21
47359.957750
 0
LINE
 8
001
 62
3
 10
40203.818000
 20
47436.740750
 11
40389.899500
 21
48057.737000
 0
LINE
 8
001
 62
3
 10
40485.272250
 20
48076.984000
 11
40935.214500
 21
47682.658250
 0
LINE
 8
001
 62
3
 10
41035.629500
 20
47716.420750
 11
41233.356750
 21
48227.953250
 0
LINE
 8
001
 62
3
 10
41347.340000
 20
48250.956000
 11
41749.447000
 21
47956.427500
 0
LINE
 8
001
 62
3
 10
41871.613750
 20
47997.503500
 11
42073.556750
 21
48397.512000
 0
LINE
 8
001
 62
3
 10
42215.298000
 20
48426.116500
 11
42559.506750
 21
48228.793750
 0
LINE
 8
001
 62
3
 10
42715.666500
 20
48281.299500
 11
42907.866750
 21
48565.882250
 0
LINE
 8
001
 6
CENTER
 62
3
 10
43926.615250
 20
48730.647750
 11
44324.236250
 21
48837.190000
 0
LINE
 8
001
 62
3
 10
37749.517750
 20
46816.680500
 11
37719.831750
 21
46601.550250
 0
LINE
 8
001
 62
3
 10
37850.043500
 20
47545.174500
 11
37823.689750
 21
47354.193000
 0
LINE
 8
001
 62
3
 10
38033.619500
 20
47410.443500
 11
37914.128000
 21
47558.107250
 0
LINE
 8
001
 62
3
 10
38481.068250
 20
46857.500750
 11
38377.858500
 21
46985.044000
 0
LINE
 8
001
 62
3
 10
38575.215750
 20
47037.925500
 11
38546.616000
 21
46879.540000
 0
LINE
 8
001
 62
3
 10
38697.698500
 20
47716.237750
 11
38673.438000
 21
47581.882250
 0
LINE
 8
001
 62
3
 10
38769.642500
 20
47730.756750
 11
38857.921000
 21
47631.314500
 0
LINE
 8
001
 62
3
 10
39229.145000
 20
47213.145500
 11
39300.328000
 21
47132.960500
 0
LINE
 8
001
 62
3
 10
39397.867250
 20
47258.354500
 11
39374.443500
 21
47157.880250
 0
LINE
 8
001
 62
3
 10
39544.451500
 20
47887.119250
 11
39449.687500
 21
47480.634500
 0
LINE
 8
001
 62
3
 10
37569.934500
 20
46768.561250
 11
37440.525000
 21
47251.524250
 0
LINE
 8
001
 62
3
 10
39501.786250
 20
47286.199500
 11
39372.376750
 21
47769.162250
 0
LINE
 8
001
 62
3
 10
18447.692000
 20
42389.702500
 11
18692.042250
 21
41477.774750
 0
ARC
 8
001
 62
3
 10
18376.981250
 20
42267.228000
 40
850.000000
 50
192.180664
 51
291.756327
 0
LINE
 8
001
 62
3
 10
15618.645750
 20
39087.151000
 11
15618.645750
 21
38637.151000
 0
LINE
 8
001
 62
3
 10
11368.645750
 20
38637.151000
 11
15618.645750
 21
38637.151000
 0
LINE
 8
001
 62
3
 10
11668.645750
 20
40592.151000
 11
12268.645750
 21
40592.151000
 0
LINE
 8
001
 62
3
 10
11818.645750
 20
39087.151000
 11
15618.645750
 21
39087.151000
 0
LINE
 8
001
 62
3
 10
11818.645750
 20
39997.151000
 11
11818.645750
 21
39087.151000
 0
LINE
 8
001
 62
3
 10
11368.645750
 20
39997.151000
 11
11818.645750
 21
39997.151000
 0
LINE
 8
001
 62
3
 10
11668.645750
 20
40592.151000
 11
11668.645750
 21
40167.151000
 0
CIRCLE
 8
001
 62
3
 10
12888.645750
 20
39509.151000
 40
272.500000
 0
CIRCLE
 8
001
 62
3
 10
12208.645750
 20
39500.151000
 40
247.500000
 0
LINE
 8
001
 62
3
 10
12268.645750
 20
39260.033750
 11
12268.645750
 21
39087.151000
 0
LINE
 8
001
 62
3
 10
12268.645750
 20
40592.151000
 11
12268.645750
 21
39740.268250
 0
CIRCLE
 8
001
 62
3
 10
12208.645750
 20
39500.151000
 40
150.000000
 0
CIRCLE
 8
001
 62
3
 10
12208.645750
 20
39500.151000
 40
100.000000
 0
CIRCLE
 8
001
 62
3
 10
12888.645750
 20
39509.151000
 40
100.000000
 0
CIRCLE
 8
001
 62
3
 10
12888.645750
 20
39509.151000
 40
150.000000
 0
LINE
 8
001
 62
3
 10
13181.645750
 20
39219.151000
 11
13181.645750
 21
39087.151000
 0
LINE
 8
001
 62
3
 10
12595.645750
 20
39219.151000
 11
12595.645750
 21
39087.151000
 0
LINE
 8
001
 62
3
 10
12595.645750
 20
39219.151000
 11
13181.645750
 21
39219.151000
 0
LINE
 8
001
 62
3
 10
13181.645750
 20
39219.151000
 11
13118.101250
 21
39362.159750
 0
LINE
 8
001
 62
3
 10
12595.645750
 20
39219.151000
 11
12659.190250
 21
39362.159750
 0
LINE
 8
001
 62
3
 10
12471.645750
 20
39219.151000
 11
12471.645750
 21
39087.151000
 0
LINE
 8
001
 62
3
 10
11945.645750
 20
39219.151000
 11
11945.645750
 21
39087.151000
 0
LINE
 8
001
 62
3
 10
11945.645750
 20
39219.151000
 11
12471.645750
 21
39219.151000
 0
LINE
 8
001
 62
3
 10
12471.645750
 20
39219.151000
 11
12417.320250
 21
39367.067500
 0
LINE
 8
001
 62
3
 10
11945.645750
 20
39219.151000
 11
11999.971250
 21
39367.067500
 0
LINE
 8
001
 62
3
 10
13383.645750
 20
39727.151000
 11
14913.645750
 21
39727.151000
 0
LINE
 8
001
 62
3
 10
14777.445750
 20
38637.151000
 11
14777.445750
 21
38207.151000
 0
LINE
 8
001
 62
3
 10
14777.445750
 20
39677.151000
 11
14777.445750
 21
39087.151000
 0
LINE
 8
001
 62
3
 10
13659.845750
 20
38637.151000
 11
13659.845750
 21
38207.151000
 0
LINE
 8
001
 62
3
 10
13659.845750
 20
39677.151000
 11
13659.845750
 21
39087.151000
 0
LINE
 8
001
 62
3
 10
13308.645750
 20
38377.151000
 11
13308.645750
 21
38207.151000
 0
LINE
 8
001
 62
3
 10
15128.645750
 20
38377.151000
 11
15128.645750
 21
38207.151000
 0
LINE
 8
001
 62
3
 10
13308.645750
 20
38377.151000
 11
13659.845750
 21
38532.151000
 0
LINE
 8
001
 62
3
 10
15128.645750
 20
38377.151000
 11
14777.445750
 21
38532.151000
 0
LINE
 8
001
 62
3
 10
14777.445750
 20
38532.151000
 11
13659.845750
 21
38532.151000
 0
LINE
 8
001
 62
3
 10
14098.645750
 20
38532.151000
 11
14098.645750
 21
38207.151000
 0
LINE
 8
001
 62
3
 10
14338.645750
 20
38532.151000
 11
14338.645750
 21
38207.151000
 0
LINE
 8
001
 62
3
 10
15128.645750
 20
38207.151000
 11
13308.645750
 21
38207.151000
 0
LINE
 8
001
 62
3
 10
14150.145750
 20
39454.151000
 11
14287.145750
 21
39454.151000
 0
LINE
 8
001
 62
3
 10
14130.145750
 20
39434.151000
 11
14130.145750
 21
39202.387000
 0
LINE
 8
001
 62
3
 10
14288.645750
 20
39127.151000
 11
15218.645750
 21
39127.151000
 0
LINE
 8
001
 62
3
 10
13498.645750
 20
39127.151000
 11
14148.645750
 21
39127.151000
 0
LINE
 8
001
 62
3
 10
14150.145750
 20
39454.151000
 11
14130.145750
 21
39434.151000
 0
LINE
 8
001
 62
3
 10
14287.145750
 20
39454.151000
 11
14307.145750
 21
39434.151000
 0
LINE
 8
001
 62
3
 10
14307.145750
 20
39413.314500
 11
14130.145750
 21
39413.314500
 0
LINE
 8
001
 62
3
 10
14307.145750
 20
39350.334000
 11
14130.145750
 21
39350.334000
 0
LINE
 8
001
 62
3
 10
14454.324000
 20
38568.330000
 11
13982.967500
 21
38568.330000
 0
LINE
 8
001
 62
3
 10
13982.967500
 20
38637.151000
 11
13982.967500
 21
38568.330000
 0
LINE
 8
001
 62
3
 10
14454.324000
 20
38637.151000
 11
14454.324000
 21
38568.330000
 0
LINE
 8
001
 62
3
 10
14145.666250
 20
38637.151000
 11
14145.666250
 21
38568.330000
 0
LINE
 8
001
 62
3
 10
14124.673000
 20
38637.151000
 11
14124.673000
 21
38568.330000
 0
LINE
 8
001
 62
3
 10
14312.618750
 20
38637.151000
 11
14312.618750
 21
38568.330000
 0
LINE
 8
001
 62
3
 10
14291.625250
 20
38637.151000
 11
14291.625250
 21
38568.330000
 0
LINE
 8
001
 62
3
 10
14287.145750
 20
39182.387000
 11
14150.145750
 21
39182.387000
 0
LINE
 8
001
 62
3
 10
14148.645750
 20
39182.387000
 11
14148.645750
 21
39087.151000
 0
LINE
 8
001
 62
3
 10
14288.645750
 20
39182.387000
 11
14288.645750
 21
39087.151000
 0
LINE
 8
001
 62
3
 10
14130.145750
 20
39202.387000
 11
14150.145750
 21
39182.387000
 0
LINE
 8
001
 62
3
 10
14307.145750
 20
39202.387000
 11
14287.145750
 21
39182.387000
 0
LINE
 8
001
 62
3
 10
14352.713250
 20
39326.951500
 11
14271.079000
 21
39326.951500
 0
LINE
 8
001
 62
3
 10
14352.713250
 20
39254.921250
 11
14271.079000
 21
39254.921250
 0
LINE
 8
001
 62
3
 10
14352.713250
 20
39326.951500
 11
14352.713250
 21
39254.921250
 0
LINE
 8
001
 62
3
 10
14271.079000
 20
39326.951500
 11
14271.079000
 21
39254.921250
 0
LINE
 8
001
 62
3
 10
14307.145750
 20
39254.921250
 11
14307.145750
 21
39202.387000
 0
LINE
 8
001
 62
3
 10
14307.145750
 20
39434.151000
 11
14307.145750
 21
39326.951500
 0
LINE
 8
001
 62
3
 10
14326.302000
 20
39326.951500
 11
14326.302000
 21
39254.921250
 0
LINE
 8
001
 62
3
 10
11668.645750
 20
39537.151000
 11
15168.645750
 21
39537.151000
 0
LINE
 8
001
 62
3
 10
11618.645750
 20
39137.151000
 11
15218.645750
 21
39137.151000
 0
LINE
 8
001
 62
3
 10
15218.645750
 20
39487.151000
 11
15218.645750
 21
38637.151000
 0
LINE
 8
001
 62
3
 10
11618.645750
 20
39487.151000
 11
11618.645750
 21
38637.151000
 0
ARC
 8
001
 62
3
 10
11668.645750
 20
39487.151000
 40
50.000000
 50
90.000000
 51
180.000000
 0
ARC
 8
001
 62
3
 10
15168.645750
 20
39487.151000
 40
50.000000
 50
0.000000
 51
90.000000
 0
LINE
 8
001
 62
3
 10
14881.645750
 20
39537.151000
 11
14881.645750
 21
38687.151000
 0
LINE
 8
001
 62
3
 10
13781.645750
 20
39537.151000
 11
13781.645750
 21
38687.151000
 0
LINE
 8
001
 62
3
 10
12431.645750
 20
39537.151000
 11
12431.645750
 21
38687.151000
 0
CIRCLE
 8
001
 62
3
 10
12643.589250
 20
38996.051750
 40
70.000000
 0
CIRCLE
 8
001
 62
3
 10
12643.589250
 20
38755.200750
 40
70.000000
 0
LINE
 8
001
 62
3
 10
12681.645750
 20
39537.151000
 11
12681.645750
 21
38637.151000
 0
POLYLINE
 8
001
 62
3
 66
1
 0
VERTEX
 8
001
 62
3
 10
12702.471750
 20
38958.198500
 0
VERTEX
 8
001
 62
3
 10
12696.697500
 20
38952.117500
 0
VERTEX
 8
001
 62
3
 10
12691.042750
 20
38945.984000
 0
VERTEX
 8
001
 62
3
 10
12685.627000
 20
38939.746250
 0
VERTEX
 8
001
 62
3
 10
12680.569250
 20
38933.352000
 0
VERTEX
 8
001
 62
3
 10
12675.989500
 20
38926.748750
 0
VERTEX
 8
001
 62
3
 10
12672.007000
 20
38919.884500
 0
VERTEX
 8
001
 62
3
 10
12668.741000
 20
38912.707250
 0
VERTEX
 8
001
 62
3
 10
12666.311250
 20
38905.164500
 0
VERTEX
 8
001
 62
3
 10
12665.451750
 20
38901.280250
 0
VERTEX
 8
001
 62
3
 10
12664.830750
 20
38897.319000
 0
VERTEX
 8
001
 62
3
 10
12664.451750
 20
38893.306000
 0
VERTEX
 8
001
 62
3
 10
12664.318000
 20
38889.266500
 0
VERTEX
 8
001
 62
3
 10
12664.433500
 20
38885.226250
 0
VERTEX
 8
001
 62
3
 10
12664.802000
 20
38881.210500
 0
VERTEX
 8
001
 62
3
 10
12665.426500
 20
38877.244500
 0
VERTEX
 8
001
 62
3
 10
12666.311250
 20
38873.354000
 0
VERTEX
 8
001
 62
3
 10
12667.812750
 20
38868.519500
 0
VERTEX
 8
001
 62
3
 10
12669.674500
 20
38863.822250
 0
VERTEX
 8
001
 62
3
 10
12671.826500
 20
38859.235250
 0
VERTEX
 8
001
 62
3
 10
12674.198750
 20
38854.731000
 0
VERTEX
 8
001
 62
3
 10
12676.721000
 20
38850.282500
 0
VERTEX
 8
001
 62
3
 10
12679.323500
 20
38845.862500
 0
VERTEX
 8
001
 62
3
 10
12681.936000
 20
38841.443750
 0
VERTEX
 8
001
 62
3
 10
12684.488250
 20
38836.999000
 0
VERTEX
 8
001
 62
3
 10
12687.861750
 20
38830.701750
 0
VERTEX
 8
001
 62
3
 10
12691.012750
 20
38824.313500
 0
VERTEX
 8
001
 62
3
 10
12693.972500
 20
38817.847250
 0
VERTEX
 8
001
 62
3
 10
12696.773500
 20
38811.316250
 0
VERTEX
 8
001
 62
3
 10
12699.447000
 20
38804.733250
 0
VERTEX
 8
001
 62
3
 10
12702.025000
 20
38798.111250
 0
VERTEX
 8
001
 62
3
 10
12704.539500
 20
38791.463500
 0
VERTEX
 8
001
 62
3
 10
12707.022250
 20
38784.802500
 0
SEQEND
 8
001
 0
POLYLINE
 8
001
 62
3
 66
1
 0
VERTEX
 8
001
 62
3
 10
12616.014750
 20
38690.860500
 0
VERTEX
 8
001
 62
3
 10
12601.320000
 20
38692.691500
 0
VERTEX
 8
001
 62
3
 10
12586.892250
 20
38694.789500
 0
VERTEX
 8
001
 62
3
 10
12572.998750
 20
38697.421250
 0
VERTEX
 8
001
 62
3
 10
12559.906500
 20
38700.854000
 0
VERTEX
 8
001
 62
3
 10
12547.882500
 20
38705.354750
 0
VERTEX
 8
001
 62
3
 10
12537.194000
 20
38711.190500
 0
VERTEX
 8
001
 62
3
 10
12528.108000
 20
38718.628000
 0
VERTEX
 8
001
 62
3
 10
12520.891250
 20
38727.934250
 0
VERTEX
 8
001
 62
3
 10
12516.610500
 20
38736.855500
 0
VERTEX
 8
001
 62
3
 10
12513.708500
 20
38746.817500
 0
VERTEX
 8
001
 62
3
 10
12512.189000
 20
38757.486500
 0
VERTEX
 8
001
 62
3
 10
12512.054750
 20
38768.528000
 0
VERTEX
 8
001
 62
3
 10
12513.309250
 20
38779.607500
 0
VERTEX
 8
001
 62
3
 10
12515.955250
 20
38790.391000
 0
VERTEX
 8
001
 62
3
 10
12519.996500
 20
38800.544250
 0
VERTEX
 8
001
 62
3
 10
12525.435750
 20
38809.732750
 0
VERTEX
 8
001
 62
3
 10
12531.499250
 20
38817.006750
 0
VERTEX
 8
001
 62
3
 10
12538.396250
 20
38823.477000
 0
VERTEX
 8
001
 62
3
 10
12545.817750
 20
38829.399000
 0
VERTEX
 8
001
 62
3
 10
12553.454250
 20
38835.028000
 0
VERTEX
 8
001
 62
3
 10
12560.996750
 20
38840.619250
 0
VERTEX
 8
001
 62
3
 10
12568.136000
 20
38846.428250
 0
VERTEX
 8
001
 62
3
 10
12574.562750
 20
38852.710250
 0
VERTEX
 8
001
 62
3
 10
12579.968250
 20
38859.721000
 0
VERTEX
 8
001
 62
3
 10
12583.836250
 20
38867.002750
 0
VERTEX
 8
001
 62
3
 10
12586.633500
 20
38874.962000
 0
VERTEX
 8
001
 62
3
 10
12588.424000
 20
38883.436750
 0
VERTEX
 8
001
 62
3
 10
12589.271500
 20
38892.265500
 0
VERTEX
 8
001
 62
3
 10
12589.240000
 20
38901.286500
 0
VERTEX
 8
001
 62
3
 10
12588.393750
 20
38910.338250
 0
VERTEX
 8
001
 62
3
 10
12586.796500
 20
38919.258750
 0
VERTEX
 8
001
 62
3
 10
12584.512500
 20
38927.886250
 0
VERTEX
 8
001
 62
3
 10
12581.258250
 20
38936.951000
 0
VERTEX
 8
001
 62
3
 10
12577.318250
 20
38945.538250
 0
VERTEX
 8
001
 62
3
 10
12572.769750
 20
38953.728000
 0
VERTEX
 8
001
 62
3
 10
12567.690000
 20
38961.600000
 0
VERTEX
 8
001
 62
3
 10
12562.157250
 20
38969.234250
 0
VERTEX
 8
001
 62
3
 10
12556.248500
 20
38976.710250
 0
VERTEX
 8
001
 62
3
 10
12550.041250
 20
38984.108250
 0
VERTEX
 8
001
 62
3
 10
12543.613250
 20
38991.507500
 0
VERTEX
 8
001
 62
3
 10
12538.490250
 20
38997.354250
 0
VERTEX
 8
001
 62
3
 10
12533.418000
 20
39003.272250
 0
VERTEX
 8
001
 62
3
 10
12528.534750
 20
39009.283750
 0
VERTEX
 8
001
 62
3
 10
12523.979000
 20
39015.410000
 0
VERTEX
 8
001
 62
3
 10
12519.889500
 20
39021.672500
 0
VERTEX
 8
001
 62
3
 10
12516.404500
 20
39028.093250
 0
VERTEX
 8
001
 62
3
 10
12513.662750
 20
39034.693750
 0
VERTEX
 8
001
 62
3
 10
12511.802750
 20
39041.495500
 0
VERTEX
 8
001
 62
3
 10
12511.032750
 20
39046.910000
 0
VERTEX
 8
001
 62
3
 10
12510.797750
 20
39052.441500
 0
VERTEX
 8
001
 62
3
 10
12511.021750
 20
39058.073250
 0
VERTEX
 8
001
 62
3
 10
12511.628000
 20
39063.788500
 0
VERTEX
 8
001
 62
3
 10
12512.540250
 20
39069.570500
 0
VERTEX
 8
001
 62
3
 10
12513.681750
 20
39075.402750
 0
VERTEX
 8
001
 62
3
 10
12514.976250
 20
39081.268500
 0
VERTEX
 8
001
 62
3
 10
12516.347000
 20
39087.151000
 0
SEQEND
 8
001
 0
POLYLINE
 8
001
 62
3
 66
1
 0
VERTEX
 8
001
 62
3
 10
12707.720500
 20
39024.109000
 0
VERTEX
 8
001
 62
3
 10
12704.274000
 20
39034.561250
 0
VERTEX
 8
001
 62
3
 10
12700.554500
 20
39044.768250
 0
VERTEX
 8
001
 62
3
 10
12696.289250
 20
39054.485500
 0
VERTEX
 8
001
 62
3
 10
12691.205000
 20
39063.468000
 0
VERTEX
 8
001
 62
3
 10
12685.029250
 20
39071.470750
 0
VERTEX
 8
001
 62
3
 10
12677.488750
 20
39078.248750
 0
VERTEX
 8
001
 62
3
 10
12668.310750
 20
39083.557250
 0
VERTEX
 8
001
 62
3
 10
12657.222250
 20
39087.151000
 0
VERTEX
 8
001
 62
3
 10
12648.615750
 20
39088.524500
 0
VERTEX
 8
001
 62
3
 10
12639.516500
 20
39089.172000
 0
VERTEX
 8
001
 62
3
 10
12630.426250
 20
39089.260000
 0
VERTEX
 8
001
 62
3
 10
12621.847500
 20
39088.955500
 0
VERTEX
 8
001
 62
3
 10
12614.282250
 20
39088.425500
 0
VERTEX
 8
001
 62
3
 10
12608.232750
 20
39087.837000
 0
VERTEX
 8
001
 62
3
 10
12604.201250
 20
39087.356500
 0
VERTEX
 8
001
 62
3
 10
12602.690000
 20
39087.151000
 0
SEQEND
 8
001
 0
LINE
 8
001
 62
3
 10
11618.645750
 20
38687.151000
 11
15218.645750
 21
38687.151000
 0
LINE
 8
001
 62
3
 10
13383.645750
 20
39677.151000
 11
14913.645750
 21
39677.151000
 0
ARC
 8
001
 6
PHANTOM
 62
3
 10
14913.645750
 20
39702.151000
 40
25.000000
 50
0.000000
 51
90.000000
 0
ARC
 8
001
 6
PHANTOM
 62
3
 10
14913.645750
 20
39702.151000
 40
25.000000
 50
270.000000
 51
360.000000
 0
CIRCLE
 8
001
 62
3
 10
12643.589250
 20
38996.051750
 40
50.000000
 0
CIRCLE
 8
001
 62
3
 10
12643.589250
 20
38755.200750
 40
50.000000
 0
CIRCLE
 8
001
 62
3
 10
12643.589250
 20
38996.051750
 40
10.000000
 0
CIRCLE
 8
001
 62
3
 10
12643.589250
 20
38755.200750
 40
10.000000
 0
LINE
 8
001
 62
3
 10
13383.645750
 20
39727.151000
 11
13383.645750
 21
39677.151000
 0
LINE
 8
001
 62
3
 10
13710.645750
 20
39997.151000
 11
14726.645750
 21
39997.151000
 0
LINE
 8
001
 62
3
 10
14726.645750
 20
39997.151000
 11
14726.645750
 21
39727.151000
 0
LINE
 8
001
 62
3
 10
13710.645750
 20
39997.151000
 11
13710.645750
 21
39727.151000
 0
LINE
 8
001
 6
PHANTOM
 62
3
 10
13710.645750
 20
35497.151000
 11
14726.645750
 21
35497.151000
 0
LINE
 8
001
 6
PHANTOM
 62
3
 10
13710.645750
 20
30997.151000
 11
14726.645750
 21
30997.151000
 0
LINE
 8
001
 62
3
 10
15608.645750
 20
39117.151000
 11
15608.645750
 21
39087.151000
 0
LINE
 8
001
 62
3
 10
15308.645750
 20
39117.151000
 11
15308.645750
 21
39087.151000
 0
ARC
 8
001
 62
3
 10
15518.645750
 20
39177.151000
 40
65.000000
 50
19.373743
 51
123.259780
 0
LINE
 8
001
 62
3
 10
15308.645750
 20
39117.151000
 11
15482.997500
 21
39231.503500
 0
LINE
 8
001
 62
3
 10
15608.645750
 20
39117.151000
 11
15579.965250
 21
39198.713250
 0
CIRCLE
 8
001
 62
3
 10
15518.645750
 20
39177.151000
 40
28.000000
 0
LINE
 8
001
 62
3
 10
11318.645750
 20
39687.151000
 11
11368.645750
 21
39687.151000
 0
LINE
 8
001
 62
3
 10
11368.645750
 20
40087.151000
 11
11368.645750
 21
38637.151000
 0
LINE
 8
001
 62
3
 10
11208.645750
 20
40087.151000
 11
11208.645750
 21
39837.151000
 0
LINE
 8
001
 62
3
 10
11208.645750
 20
39837.151000
 11
11318.645750
 21
39687.151000
 0
CIRCLE
 8
001
 62
3
 10
11288.645750
 20
40087.151000
 40
23.000000
 0
LINE
 8
001
 62
3
 10
10954.341750
 20
46108.436250
 11
15547.547500
 21
39304.750250
 0
LINE
 8
001
 62
3
 10
10796.288250
 20
46001.733250
 11
15389.493750
 21
39198.047250
 0
LINE
 8
001
 62
3
 10
10931.949000
 20
45756.731000
 11
10982.885250
 21
45681.281750
 0
LINE
 8
001
 62
3
 10
10876.591500
 20
45776.778500
 11
10862.385500
 21
45772.661750
 0
ARC
 8
001
 62
3
 10
10890.508500
 20
45728.754500
 40
50.000000
 50
34.023500
 51
106.161318
 0
ARC
 8
001
 62
3
 10
10593.695000
 20
46311.385750
 40
20.000000
 50
184.865094
 51
225.223835
 0
LINE
 8
001
 62
3
 10
10638.342750
 20
46238.911250
 11
10579.608250
 21
46297.188500
 0
ARC
 8
001
 62
3
 10
10603.125750
 20
46203.418000
 40
50.000000
 50
5.091467
 51
45.223835
 0
ARC
 8
001
 62
3
 10
10606.739250
 20
46452.912500
 40
45.000000
 50
53.863086
 51
184.865094
 0
LINE
 8
001
 62
3
 10
10561.901250
 20
46449.096250
 11
10573.767250
 21
46309.689500
 0
LINE
 8
001
 62
3
 10
10818.102750
 20
46354.295000
 11
10633.276500
 21
46489.255000
 0
ARC
 8
001
 62
3
 10
10955.083500
 20
46169.264500
 40
48.000000
 50
328.113006
 51
408.547438
 0
LINE
 8
001
 62
3
 10
10818.102750
 20
46354.295000
 11
10986.859500
 21
46205.240500
 0
LINE
 8
001
 62
3
 10
10996.854000
 20
46089.519750
 11
11181.799250
 21
45815.569750
 0
ARC
 8
001
 62
3
 10
11038.294500
 20
46117.496250
 40
50.000000
 50
148.113006
 51
214.023500
 0
CIRCLE
 8
001
 62
3
 10
10718.645750
 20
46287.151000
 40
28.000000
 0
CIRCLE
 8
001
 62
3
 10
10767.060250
 20
45828.328500
 40
23.000000
 0
CIRCLE
 8
001
 62
3
 10
10955.083500
 20
46169.264500
 40
16.000000
 0
CIRCLE
 8
001
 62
3
 10
10606.739250
 20
46452.912500
 40
16.000000
 0
LINE
 8
001
 62
3
 10
10796.288250
 20
46001.733250
 11
10954.341750
 21
46108.436250
 0
LINE
 8
001
 62
3
 10
10982.885250
 20
45681.281750
 11
11003.315250
 21
45695.074250
 0
LINE
 8
001
 62
3
 10
11161.369000
 20
45801.777250
 11
11181.799250
 21
45815.569750
 0
LINE
 8
001
 62
3
 10
15389.493750
 20
39198.047250
 11
15547.547500
 21
39304.750250
 0
LINE
 8
001
 62
3
 10
15471.615750
 20
39434.471000
 11
15566.736250
 21
39293.573500
 0
LINE
 8
001
 62
3
 10
15297.566000
 20
39316.969000
 11
15392.686500
 21
39176.071750
 0
LINE
 8
001
 62
3
 10
15297.566000
 20
39316.969000
 11
15305.564000
 21
39322.368500
 0
LINE
 8
001
 62
3
 10
15463.617750
 20
39429.071500
 11
15471.615750
 21
39434.471000
 0
ARC
 8
001
 62
3
 10
15518.645750
 20
39177.151000
 40
70.000000
 50
236.730992
 51
371.316012
 0
LINE
 8
001
 62
3
 10
15392.686500
 20
39176.071750
 11
15480.245750
 21
39118.623750
 0
LINE
 8
001
 62
3
 10
15566.736250
 20
39293.573500
 11
15587.285000
 21
39190.886500
 0
LINE
 8
001
 62
3
 10
10822.715250
 20
45708.115000
 11
11321.658250
 21
40216.167000
 0
LINE
 8
001
 62
3
 10
10734.015500
 20
45699.668000
 11
11232.923500
 21
40208.105500
 0
CIRCLE
 8
001
 62
3
 10
11288.645750
 20
40087.151000
 40
80.000000
 0
LINE
 8
001
 62
3
 10
11368.779750
 20
40255.090000
 11
11374.208500
 21
40195.336250
 0
LINE
 8
001
 62
3
 10
11179.559000
 20
40237.899500
 11
11184.987750
 21
40178.145500
 0
LINE
 8
001
 62
3
 10
11194.504000
 20
40349.710250
 11
11179.559000
 21
40237.899500
 0
LINE
 8
001
 62
3
 10
11333.929750
 20
40362.377000
 11
11368.779750
 21
40255.090000
 0
LINE
 8
001
 62
3
 10
11321.251000
 20
40220.648500
 11
11232.516500
 21
40212.587000
 0
LINE
 8
001
 62
3
 10
11184.987750
 20
40178.145500
 11
11210.782500
 21
40068.785500
 0
LINE
 8
001
 62
3
 10
11374.208500
 20
40195.336250
 11
11368.544000
 21
40083.118000
 0
LINE
 8
001
 62
3
 10
11219.849750
 20
40352.012750
 11
11194.504000
 21
40349.710250
 0
LINE
 8
001
 62
3
 10
11333.929750
 20
40362.377000
 11
11308.584250
 21
40360.074250
 0
LINE
 8
001
 62
3
 10
11321.658250
 20
40216.167000
 11
11232.923500
 21
40208.105500
 0
ARC
 8
001
 62
3
 10
11273.530500
 20
40251.597250
 40
60.000000
 50
227.494529
 51
323.385357
 0
CIRCLE
 8
001
 62
3
 10
10767.060250
 20
45828.328500
 40
23.000000
 0
ARC
 8
001
 62
3
 10
10767.060250
 20
45828.328500
 40
80.000000
 50
13.271756
 51
177.110377
 0
LINE
 8
001
 62
3
 10
10686.926250
 20
45660.389250
 11
10681.497750
 21
45720.143250
 0
LINE
 8
001
 62
3
 10
10876.147000
 20
45677.580000
 11
10870.718250
 21
45737.334000
 0
LINE
 8
001
 62
3
 10
10861.202000
 20
45565.769250
 11
10876.147000
 21
45677.580000
 0
LINE
 8
001
 62
3
 10
10721.776250
 20
45553.102500
 11
10686.926250
 21
45660.389250
 0
LINE
 8
001
 62
3
 10
10734.455000
 20
45694.830750
 11
10823.189500
 21
45702.892500
 0
LINE
 8
001
 62
3
 10
10870.718250
 20
45737.334000
 11
10844.923750
 21
45846.694000
 0
LINE
 8
001
 62
3
 10
10681.497750
 20
45720.143250
 11
10687.162000
 21
45832.361500
 0
LINE
 8
001
 62
3
 10
10835.856500
 20
45563.466500
 11
10861.202000
 21
45565.769250
 0
LINE
 8
001
 62
3
 10
10721.776250
 20
45553.102500
 11
10747.121750
 21
45555.405000
 0
LINE
 8
001
 62
3
 10
10734.048000
 20
45699.312500
 11
10822.782500
 21
45707.374000
 0
ARC
 8
001
 62
3
 10
10782.175500
 20
45663.882250
 40
60.000000
 50
47.494529
 51
143.385357
 0
LINE
 8
001
 62
3
 10
13568.645750
 20
8497.151000
 11
14868.645750
 21
8497.151000
 0
LINE
 8
001
 62
3
 10
13710.645750
 20
26497.151000
 11
14726.645750
 21
26497.151000
 0
LINE
 8
001
 62
3
 10
13710.645750
 20
21997.151000
 11
14726.645750
 21
21997.151000
 0
LINE
 8
001
 62
3
 10
13710.645750
 20
17497.151000
 11
14726.645750
 21
17497.151000
 0
LINE
 8
001
 62
3
 10
10718.645750
 20
46197.151000
 11
10718.645750
 21
45997.151000
 0
LINE
 8
001
 62
3
 10
10113.645750
 20
45302.151000
 11
10113.645750
 21
45237.151000
 0
LINE
 8
001
 62
3
 10
10598.645750
 20
46197.151000
 11
10718.645750
 21
46197.151000
 0
LINE
 8
001
 62
3
 10
10648.645750
 20
45997.151000
 11
10718.645750
 21
45997.151000
 0
LINE
 8
001
 62
3
 10
10643.645750
 20
46197.151000
 11
10643.645750
 21
45232.151000
 0
LINE
 8
001
 62
3
 10
10648.645750
 20
46197.151000
 11
10648.645750
 21
45237.151000
 0
LINE
 8
001
 62
3
 10
10578.645750
 20
45232.151000
 11
10643.645750
 21
45232.151000
 0
LINE
 8
001
 62
3
 10
10643.645750
 20
45237.151000
 11
10648.645750
 21
45237.151000
 0
LINE
 8
001
 62
3
 10
10578.645750
 20
46177.151000
 11
10598.645750
 21
46197.151000
 0
LINE
 8
001
 62
3
 10
10113.645750
 20
45302.151000
 11
10453.645750
 21
45302.151000
 0
LINE
 8
001
 62
3
 10
10453.645750
 20
45317.151000
 11
10453.645750
 21
45292.151000
 0
LINE
 8
001
 62
3
 10
10453.645750
 20
45292.151000
 11
10578.645750
 21
45292.151000
 0
LINE
 8
001
 62
3
 10
10453.645750
 20
45317.151000
 11
10578.645750
 21
45317.151000
 0
LINE
 8
001
 62
3
 10
10563.645750
 20
45452.151000
 11
10578.645750
 21
45452.151000
 0
LINE
 8
001
 62
3
 10
10563.645750
 20
45452.151000
 11
10453.645750
 21
45317.151000
 0
LINE
 8
001
 62
3
 10
10113.645750
 20
45753.151000
 11
10583.645750
 21
45753.151000
 0
LINE
 8
001
 62
3
 10
10113.645750
 20
45721.151000
 11
10583.645750
 21
45721.151000
 0
LINE
 8
001
 62
3
 10
10113.645750
 20
45753.151000
 11
10113.645750
 21
45721.151000
 0
LINE
 8
001
 62
3
 10
10118.645750
 20
45721.151000
 11
10118.645750
 21
45302.151000
 0
LINE
 8
001
 62
3
 10
10118.645750
 20
46123.551000
 11
10118.645750
 21
45753.151000
 0
LINE
 8
001
 62
3
 10
10145.845750
 20
45721.151000
 11
10145.845750
 21
45302.151000
 0
LINE
 8
001
 62
3
 10
10145.845750
 20
46123.551000
 11
10145.845750
 21
45753.151000
 0
LINE
 8
001
 62
3
 10
10118.645750
 20
46123.551000
 11
10578.645750
 21
46123.551000
 0
LINE
 8
001
 62
3
 10
10132.245750
 20
46150.751000
 11
10578.645750
 21
46150.751000
 0
ARC
 8
001
 62
3
 10
10132.245750
 20
46137.151000
 40
13.600000
 50
90.000000
 51
270.000000
 0
LINE
 8
001
 62
3
 10
10652.928500
 20
46207.855250
 11
10653.882250
 21
46197.151000
 0
LINE
 8
001
 62
3
 10
10671.701750
 20
45997.151000
 11
10687.376000
 21
45821.228750
 0
LINE
 8
001
 62
3
 10
10583.645750
 20
45753.151000
 11
10583.645750
 21
45721.151000
 0
LINE
 8
001
 62
3
 10
10578.645750
 20
45721.151000
 11
10578.645750
 21
45232.151000
 0
LINE
 8
001
 62
3
 10
10578.645750
 20
46177.151000
 11
10578.645750
 21
45753.151000
 0
LINE
 8
001
 62
3
 10
10113.645750
 20
45237.151000
 11
10578.645750
 21
45237.151000
 0
LINE
 8
001
 62
3
 10
10643.645750
 20
45237.151000
 11
10648.645750
 21
45237.151000
 0
LINE
 8
001
 62
3
 10
43847.693750
 20
48883.078750
 11
43945.717500
 21
48902.861000
 0
LINE
 8
001
 62
3
 10
43846.506750
 20
48888.960250
 11
43944.530500
 21
48908.742250
 0
LINE
 8
001
 62
3
 10
43944.530500
 20
48908.742250
 11
43956.271000
 21
48850.566250
 0
LINE
 8
001
 62
3
 10
43846.506750
 20
48888.960250
 11
43858.265500
 21
48830.693250
 0
LINE
 8
001
 62
3
 10
43107.424250
 20
49586.947500
 11
44025.319250
 21
49772.187500
 0
LINE
 8
001
 62
3
 10
43075.381000
 20
49608.229250
 11
44019.938500
 21
49798.849750
 0
ARC
 8
001
 62
3
 10
44022.628750
 20
49785.518750
 40
13.600000
 50
281.409586
 51
461.409586
 0
LINE
 8
001
 62
3
 10
43167.366000
 20
49221.177000
 11
44111.923500
 21
49411.797500
 0
LINE
 8
001
 62
3
 10
43173.696250
 20
49189.809250
 11
44118.253750
 21
49380.430000
 0
LINE
 8
001
 62
3
 10
44111.923500
 20
49411.797500
 11
44118.253750
 21
49380.430000
 0
LINE
 8
001
 62
3
 10
43167.366000
 20
49221.177000
 11
43173.696250
 21
49189.809250
 0
LINE
 8
001
 62
3
 10
43307.375750
 20
48780.158500
 11
43320.432000
 21
48715.462750
 0
LINE
 8
001
 62
3
 10
43209.352000
 20
48760.376250
 11
43222.408250
 21
48695.680500
 0
LINE
 8
001
 62
3
 10
43209.352000
 20
48760.376250
 11
43307.375750
 21
48780.158500
 0
LINE
 8
001
 62
3
 10
43210.539000
 20
48754.495000
 11
43308.562750
 21
48774.277000
 0
LINE
 8
001
 62
3
 10
43075.381000
 20
49608.229250
 11
43245.032750
 21
48767.577000
 0
LINE
 8
001
 62
3
 10
43187.027500
 20
49192.499750
 11
43271.695250
 21
48772.957750
 0
LINE
 8
001
 62
3
 10
43107.424250
 20
49586.947500
 11
43180.697250
 21
49223.867250
 0
LINE
 8
001
 62
3
 10
43797.520000
 20
49315.702750
 11
43882.187500
 21
48896.161000
 0
LINE
 8
001
 62
3
 10
43717.916500
 20
49710.150500
 11
43791.189500
 21
49347.070500
 0
LINE
 8
001
 62
3
 10
43824.182250
 20
49321.083500
 11
43908.850000
 21
48901.541750
 0
LINE
 8
001
 62
3
 10
43744.579000
 20
49715.531250
 11
43817.852000
 21
49352.451250
 0
LINE
 8
001
 62
3
 10
43075.381000
 20
49608.229250
 11
43107.424250
 21
49586.947500
 0
LINE
 8
001
 62
3
 10
11718.645750
 20
6337.151000
 11
16718.645750
 21
6337.151000
 0
LINE
 8
001
 62
3
 10
12738.645750
 20
8457.151000
 11
15698.645750
 21
8457.151000
 0
LINE
 8
001
 62
3
 10
14868.645750
 20
8497.151000
 11
14868.645750
 21
8457.151000
 0
LINE
 8
001
 62
3
 10
13568.645750
 20
8497.151000
 11
13568.645750
 21
8457.151000
 0
LINE
 8
001
 62
3
 10
15698.645750
 20
8457.151000
 11
15698.645750
 21
7857.151000
 0
LINE
 8
001
 62
3
 10
12738.645750
 20
8457.151000
 11
12738.645750
 21
7857.151000
 0
LINE
 8
001
 62
3
 10
12738.645750
 20
8440.151000
 11
15698.645750
 21
8440.151000
 0
LINE
 8
001
 62
3
 10
12738.645750
 20
7857.151000
 11
15698.645750
 21
7857.151000
 0
LINE
 8
001
 62
3
 10
12738.645750
 20
7874.151000
 11
15698.645750
 21
7874.151000
 0
LINE
 8
001
 62
3
 10
15643.645750
 20
7857.151000
 11
15643.645750
 21
7837.151000
 0
LINE
 8
001
 62
3
 10
15393.645750
 20
7857.151000
 11
15393.645750
 21
7837.151000
 0
LINE
 8
001
 62
3
 10
15583.645750
 20
8440.151000
 11
15583.645750
 21
7874.151000
 0
LINE
 8
001
 62
3
 10
15453.645750
 20
8440.151000
 11
15453.645750
 21
7874.151000
 0
LINE
 8
001
 62
3
 10
15673.645750
 20
8440.151000
 11
15673.645750
 21
7874.151000
 0
LINE
 8
001
 62
3
 10
15363.645750
 20
8440.151000
 11
15363.645750
 21
7874.151000
 0
LINE
 8
001
 62
3
 10
15618.645750
 20
8627.151000
 11
15618.645750
 21
6827.151000
 0
LINE
 8
001
 62
3
 10
15418.645750
 20
8627.151000
 11
15418.645750
 21
6827.151000
 0
LINE
 8
001
 62
3
 10
15268.645750
 20
6827.151000
 11
15418.645750
 21
6827.151000
 0
LINE
 8
001
 62
3
 10
15618.645750
 20
6827.151000
 11
15768.645750
 21
6827.151000
 0
LINE
 8
001
 62
3
 10
15698.645750
 20
8457.151000
 11
12738.645750
 21
8457.151000
 0
LINE
 8
001
 62
3
 10
12738.645750
 20
8457.151000
 11
12738.645750
 21
7857.151000
 0
LINE
 8
001
 62
3
 10
15698.645750
 20
8440.151000
 11
12738.645750
 21
8440.151000
 0
LINE
 8
001
 62
3
 10
15698.645750
 20
7857.151000
 11
12738.645750
 21
7857.151000
 0
LINE
 8
001
 62
3
 10
15698.645750
 20
7874.151000
 11
12738.645750
 21
7874.151000
 0
LINE
 8
001
 62
3
 10
12793.645750
 20
7857.151000
 11
12793.645750
 21
7837.151000
 0
LINE
 8
001
 62
3
 10
13043.645750
 20
7857.151000
 11
13043.645750
 21
7837.151000
 0
LINE
 8
001
 62
3
 10
12853.645750
 20
8440.151000
 11
12853.645750
 21
7874.151000
 0
LINE
 8
001
 62
3
 10
12983.645750
 20
8440.151000
 11
12983.645750
 21
7874.151000
 0
LINE
 8
001
 62
3
 10
12763.645750
 20
8440.151000
 11
12763.645750
 21
7874.151000
 0
LINE
 8
001
 62
3
 10
13073.645750
 20
8440.151000
 11
13073.645750
 21
7874.151000
 0
LINE
 8
001
 62
3
 10
12818.645750
 20
8627.151000
 11
12818.645750
 21
6827.151000
 0
LINE
 8
001
 62
3
 10
13018.645750
 20
8627.151000
 11
13018.645750
 21
6827.151000
 0
LINE
 8
001
 62
3
 10
13168.645750
 20
6827.151000
 11
13018.645750
 21
6827.151000
 0
LINE
 8
001
 62
3
 10
12818.645750
 20
6827.151000
 11
12668.645750
 21
6827.151000
 0
LINE
 8
001
 62
3
 10
16718.645750
 20
7837.151000
 11
16718.645750
 21
6337.151000
 0
LINE
 8
001
 62
3
 10
11718.645750
 20
7837.151000
 11
11718.645750
 21
6337.151000
 0
ARC
 8
001
 62
3
 10
16518.645750
 20
6587.151000
 40
50.000000
 50
270.000000
 51
450.000000
 0
CIRCLE
 8
001
 62
3
 10
16318.645750
 20
6587.151000
 40
44.000000
 0
CIRCLE
 8
001
 62
3
 10
16018.645750
 20
6587.151000
 40
44.000000
 0
CIRCLE
 8
001
 62
3
 10
15718.645750
 20
6587.151000
 40
44.000000
 0
CIRCLE
 8
001
 62
3
 10
15418.645750
 20
6587.151000
 40
44.000000
 0
CIRCLE
 8
001
 62
3
 10
15118.645750
 20
6587.151000
 40
44.000000
 0
CIRCLE
 8
001
 62
3
 10
14818.645750
 20
6587.151000
 40
44.000000
 0
CIRCLE
 8
001
 62
3
 10
14518.645750
 20
6587.151000
 40
44.000000
 0
ARC
 8
001
 62
3
 10
11918.645750
 20
6587.151000
 40
50.000000
 50
90.000000
 51
270.000000
 0
CIRCLE
 8
001
 62
3
 10
12118.645750
 20
6587.151000
 40
44.000000
 0
CIRCLE
 8
001
 62
3
 10
12418.645750
 20
6587.151000
 40
44.000000
 0
CIRCLE
 8
001
 62
3
 10
12718.645750
 20
6587.151000
 40
44.000000
 0
CIRCLE
 8
001
 62
3
 10
13018.645750
 20
6587.151000
 40
44.000000
 0
CIRCLE
 8
001
 62
3
 10
13318.645750
 20
6587.151000
 40
44.000000
 0
CIRCLE
 8
001
 62
3
 10
13618.645750
 20
6587.151000
 40
44.000000
 0
CIRCLE
 8
001
 62
3
 10
13918.645750
 20
6587.151000
 40
44.000000
 0
LINE
 8
001
 62
3
 10
11918.645750
 20
6537.151000
 11
16518.645750
 21
6537.151000
 0
CIRCLE
 8
001
 62
3
 10
14218.645750
 20
6587.151000
 40
44.000000
 0
LINE
 8
001
 6
PHANTOM
 62
3
 10
15628.696250
 20
6337.151000
 11
16718.645750
 21
7427.100500
 0
LINE
 8
001
 6
PHANTOM
 62
3
 10
15487.275000
 20
6337.151000
 11
16718.645750
 21
7568.521750
 0
LINE
 8
001
 6
PHANTOM
 62
3
 10
13648.797250
 20
6337.151000
 11
15148.797250
 21
7837.151000
 0
LINE
 8
001
 6
PHANTOM
 62
3
 10
13507.376000
 20
6337.151000
 11
15007.376000
 21
7837.151000
 0
LINE
 8
001
 6
PHANTOM
 62
3
 10
13365.954500
 20
6337.151000
 11
14865.954500
 21
7837.151000
 0
LINE
 8
001
 6
PHANTOM
 62
3
 10
15770.117750
 20
6337.151000
 11
16718.645750
 21
7285.679000
 0
LINE
 8
001
 6
PHANTOM
 62
3
 10
11718.645750
 20
6811.162500
 11
12744.634250
 21
7837.151000
 0
LINE
 8
001
 6
PHANTOM
 62
3
 10
11718.645750
 20
6952.583750
 11
12603.213000
 21
7837.151000
 0
LINE
 8
001
 6
PHANTOM
 62
3
 10
11718.645750
 20
7094.005250
 11
12461.791500
 21
7837.151000
 0
LINE
 8
001
 62
3
 10
30945.472750
 20
11798.988750
 11
35945.472750
 21
11798.988750
 0
LINE
 8
001
 62
3
 10
30945.472750
 20
6798.988750
 11
35945.472750
 21
6798.988750
 0
LINE
 8
001
 62
3
 10
30945.472750
 20
11798.988750
 11
30945.472750
 21
6798.988750
 0
LINE
 8
001
 62
3
 10
35945.472750
 20
11798.988750
 11
35945.472750
 21
6798.988750
 0
LINE
 8
001
 62
3
 10
34421.280250
 20
10416.217500
 11
34562.701500
 21
10274.796250
 0
LINE
 8
001
 6
CENTER
 62
3
 10
34087.175250
 20
10495.764000
 11
34636.852000
 21
9946.087000
 0
LINE
 8
001
 62
3
 10
34242.735750
 20
10393.236500
 11
34331.124000
 21
10481.625000
 0
LINE
 8
001
 62
3
 10
34539.720500
 20
10096.251750
 11
34628.108750
 21
10184.640000
 0
LINE
 8
001
 62
3
 10
34331.124000
 20
10481.625000
 11
34628.108750
 21
10184.640000
 0
LINE
 8
001
 62
3
 10
34242.735750
 20
10393.236500
 11
34539.720500
 21
10096.251750
 0
LINE
 8
001
 6
CENTER
 62
3
 10
34262.445500
 20
10328.093500
 11
34425.506500
 21
10491.154750
 0
LINE
 8
001
 6
CENTER
 62
3
 10
34476.554000
 20
10117.938000
 11
34637.638500
 21
10279.022500
 0
LINE
 8
001
 6
CENTER
 62
3
 10
34246.543500
 20
10477.817000
 11
34614.472500
 21
10109.888250
 0
LINE
 8
001
 6
CENTER
 62
3
 10
34105.122000
 20
10336.395750
 11
34473.051000
 21
9968.466750
 0
LINE
 8
001
 62
3
 10
34189.702750
 20
10340.203500
 11
34101.314250
 21
10251.815250
 0
LINE
 8
001
 62
3
 10
34486.687500
 20
10043.218750
 11
34398.299250
 21
9954.830250
 0
LINE
 8
001
 62
3
 10
34101.314250
 20
10251.815250
 11
34398.299250
 21
9954.830250
 0
LINE
 8
001
 62
3
 10
34189.702750
 20
10340.203500
 11
34486.687500
 21
10043.218750
 0
LINE
 8
001
 6
CENTER
 62
3
 10
34252.068750
 20
10317.717000
 11
34091.784500
 21
10157.432500
 0
LINE
 8
001
 6
CENTER
 62
3
 10
34464.695000
 20
10106.079000
 11
34303.916500
 21
9945.300500
 0
LINE
 8
001
 6
CENTER
 62
3
 10
33901.963500
 20
10044.579500
 11
34190.100750
 21
9756.442500
 0
CIRCLE
 8
001
 62
3
 10
33445.472750
 20
9298.988750
 40
475.000000
 0
LINE
 8
001
 62
3
 10
34014.693750
 20
10037.915250
 11
34184.399250
 21
9868.209750
 0
LINE
 8
001
 62
3
 10
33908.627750
 20
9931.849250
 11
34078.333250
 21
9762.143750
 0
LINE
 8
001
 62
3
 10
33908.627750
 20
9931.849250
 11
34014.693750
 21
10037.915250
 0
LINE
 8
001
 62
3
 10
34078.333250
 20
9762.143750
 11
34184.399250
 21
9868.209750
 0
LINE
 8
001
 62
3
 10
34028.835750
 20
10023.773250
 11
34421.280250
 21
10416.217500
 0
LINE
 8
001
 62
3
 10
34170.257250
 20
9882.352000
 11
34562.701500
 21
10274.796250
 0
LINE
 8
001
 62
3
 10
32328.244000
 20
8323.181500
 11
32469.665500
 21
8181.760000
 0
LINE
 8
001
 6
CENTER
 62
3
 10
32248.697500
 20
8657.286250
 11
32798.374500
 21
8107.609500
 0
LINE
 8
001
 62
3
 10
32351.225000
 20
8501.726000
 11
32262.836750
 21
8413.337500
 0
LINE
 8
001
 62
3
 10
32648.210000
 20
8204.741000
 11
32559.821500
 21
8116.352750
 0
LINE
 8
001
 62
3
 10
32262.836750
 20
8413.337500
 11
32559.821500
 21
8116.352750
 0
LINE
 8
001
 62
3
 10
32351.225000
 20
8501.726000
 11
32648.210000
 21
8204.741000
 0
LINE
 8
001
 6
CENTER
 62
3
 10
32416.368000
 20
8482.016000
 11
32253.307000
 21
8318.955000
 0
LINE
 8
001
 6
CENTER
 62
3
 10
32626.523500
 20
8267.907500
 11
32465.439000
 21
8106.823000
 0
LINE
 8
001
 6
CENTER
 62
3
 10
32266.644500
 20
8497.918000
 11
32634.573500
 21
8129.989250
 0
LINE
 8
001
 6
CENTER
 62
3
 10
32408.065750
 20
8639.339500
 11
32775.994750
 21
8271.410500
 0
LINE
 8
001
 62
3
 10
32404.258000
 20
8554.759000
 11
32492.646500
 21
8643.147250
 0
LINE
 8
001
 62
3
 10
32701.243000
 20
8257.774000
 11
32789.631250
 21
8346.162500
 0
LINE
 8
001
 62
3
 10
32492.646500
 20
8643.147250
 11
32789.631250
 21
8346.162500
 0
LINE
 8
001
 62
3
 10
32404.258000
 20
8554.759000
 11
32701.243000
 21
8257.774000
 0
LINE
 8
001
 6
CENTER
 62
3
 10
32426.744750
 20
8492.392750
 11
32587.029000
 21
8652.677000
 0
LINE
 8
001
 6
CENTER
 62
3
 10
32638.382500
 20
8279.766500
 11
32799.161000
 21
8440.545000
 0
LINE
 8
001
 6
CENTER
 62
3
 10
32699.882000
 20
8842.498000
 11
32988.019000
 21
8554.361000
 0
LINE
 8
001
 62
3
 10
32706.546250
 20
8729.767750
 11
32876.251750
 21
8560.062250
 0
LINE
 8
001
 62
3
 10
32812.612250
 20
8835.833750
 11
32982.317750
 21
8666.128250
 0
LINE
 8
001
 62
3
 10
32812.612250
 20
8835.833750
 11
32706.546250
 21
8729.767750
 0
LINE
 8
001
 62
3
 10
32982.317750
 20
8666.128250
 11
32876.251750
 21
8560.062250
 0
LINE
 8
001
 62
3
 10
32720.688250
 20
8715.625750
 11
32328.244000
 21
8323.181500
 0
LINE
 8
001
 62
3
 10
32862.109750
 20
8574.204250
 11
32469.665500
 21
8181.760000
 0
LINE
 8
001
 62
3
 10
34421.280250
 20
8181.760000
 11
34562.701500
 21
8323.181500
 0
LINE
 8
001
 6
CENTER
 62
3
 10
34087.175250
 20
8102.213500
 11
34636.852000
 21
8651.890500
 0
LINE
 8
001
 62
3
 10
34242.735750
 20
8204.741000
 11
34331.124000
 21
8116.352750
 0
LINE
 8
001
 62
3
 10
34539.720500
 20
8501.726000
 11
34628.108750
 21
8413.337500
 0
LINE
 8
001
 62
3
 10
34331.124000
 20
8116.352750
 11
34628.108750
 21
8413.337500
 0
LINE
 8
001
 62
3
 10
34242.735750
 20
8204.741000
 11
34539.720500
 21
8501.726000
 0
LINE
 8
001
 6
CENTER
 62
3
 10
34262.445500
 20
8269.884000
 11
34425.506500
 21
8106.823000
 0
LINE
 8
001
 6
CENTER
 62
3
 10
34476.554000
 20
8480.039500
 11
34637.638500
 21
8318.955000
 0
LINE
 8
001
 6
CENTER
 62
3
 10
34246.543500
 20
8120.160500
 11
34614.472500
 21
8488.089500
 0
LINE
 8
001
 6
CENTER
 62
3
 10
34105.122000
 20
8261.581750
 11
34473.051000
 21
8629.510750
 0
LINE
 8
001
 62
3
 10
34189.702750
 20
8257.774000
 11
34101.314250
 21
8346.162500
 0
LINE
 8
001
 62
3
 10
34486.687500
 20
8554.759000
 11
34398.299250
 21
8643.147250
 0
LINE
 8
001
 62
3
 10
34101.314250
 20
8346.162500
 11
34398.299250
 21
8643.147250
 0
LINE
 8
001
 62
3
 10
34189.702750
 20
8257.774000
 11
34486.687500
 21
8554.759000
 0
LINE
 8
001
 6
CENTER
 62
3
 10
34252.068750
 20
8280.260750
 11
34091.784500
 21
8440.545000
 0
LINE
 8
001
 6
CENTER
 62
3
 10
34464.695000
 20
8491.898500
 11
34303.916500
 21
8652.677000
 0
LINE
 8
001
 6
CENTER
 62
3
 10
33901.963500
 20
8553.398000
 11
34190.100750
 21
8841.535250
 0
LINE
 8
001
 62
3
 10
34014.693750
 20
8560.062250
 11
34184.399250
 21
8729.767750
 0
LINE
 8
001
 62
3
 10
33908.627750
 20
8666.128250
 11
34078.333250
 21
8835.833750
 0
LINE
 8
001
 62
3
 10
33908.627750
 20
8666.128250
 11
34014.693750
 21
8560.062250
 0
LINE
 8
001
 62
3
 10
34078.333250
 20
8835.833750
 11
34184.399250
 21
8729.767750
 0
LINE
 8
001
 62
3
 10
33703.110250
 20
8899.930000
 11
33922.769750
 21
8680.270250
 0
LINE
 8
001
 62
3
 10
34028.835750
 20
8574.204250
 11
34421.280250
 21
8181.760000
 0
LINE
 8
001
 62
3
 10
33844.531500
 20
9041.351250
 11
34064.191250
 21
8821.691750
 0
LINE
 8
001
 62
3
 10
34170.257250
 20
8715.625750
 11
34562.701500
 21
8323.181500
 0
LINE
 8
001
 62
3
 10
32328.244000
 20
10274.796250
 11
32469.665500
 21
10416.217500
 0
LINE
 8
001
 6
CENTER
 62
3
 10
32248.697500
 20
9940.691250
 11
32798.374500
 21
10490.368000
 0
LINE
 8
001
 62
3
 10
32351.225000
 20
10096.251750
 11
32262.836750
 21
10184.640000
 0
LINE
 8
001
 62
3
 10
32648.210000
 20
10393.236500
 11
32559.821500
 21
10481.625000
 0
LINE
 8
001
 62
3
 10
32262.836750
 20
10184.640000
 11
32559.821500
 21
10481.625000
 0
LINE
 8
001
 62
3
 10
32351.225000
 20
10096.251750
 11
32648.210000
 21
10393.236500
 0
LINE
 8
001
 6
CENTER
 62
3
 10
32416.368000
 20
10115.961500
 11
32253.307000
 21
10279.022500
 0
LINE
 8
001
 6
CENTER
 62
3
 10
32626.523500
 20
10330.070000
 11
32465.439000
 21
10491.154750
 0
LINE
 8
001
 6
CENTER
 62
3
 10
32266.644500
 20
10100.059500
 11
32634.573500
 21
10467.988500
 0
LINE
 8
001
 6
CENTER
 62
3
 10
32408.065750
 20
9958.638250
 11
32775.994750
 21
10326.567000
 0
LINE
 8
001
 62
3
 10
32404.258000
 20
10043.218750
 11
32492.646500
 21
9954.830250
 0
LINE
 8
001
 62
3
 10
32701.243000
 20
10340.203500
 11
32789.631250
 21
10251.815250
 0
LINE
 8
001
 62
3
 10
32492.646500
 20
9954.830250
 11
32789.631250
 21
10251.815250
 0
LINE
 8
001
 62
3
 10
32404.258000
 20
10043.218750
 11
32701.243000
 21
10340.203500
 0
LINE
 8
001
 6
CENTER
 62
3
 10
32426.744750
 20
10105.585000
 11
32587.029000
 21
9945.300500
 0
LINE
 8
001
 6
CENTER
 62
3
 10
32638.382500
 20
10318.211000
 11
32799.161000
 21
10157.432500
 0
LINE
 8
001
 6
CENTER
 62
3
 10
32699.882000
 20
9755.479500
 11
32988.019000
 21
10043.616750
 0
LINE
 8
001
 62
3
 10
32706.546250
 20
9868.209750
 11
32876.251750
 21
10037.915250
 0
LINE
 8
001
 62
3
 10
32812.612250
 20
9762.143750
 11
32982.317750
 21
9931.849250
 0
LINE
 8
001
 62
3
 10
32812.612250
 20
9762.143750
 11
32706.546250
 21
9868.209750
 0
LINE
 8
001
 62
3
 10
32982.317750
 20
9931.849250
 11
32876.251750
 21
10037.915250
 0
LINE
 8
001
 62
3
 10
33046.414000
 20
9556.626250
 11
32826.754250
 21
9776.285750
 0
LINE
 8
001
 62
3
 10
32720.688250
 20
9882.352000
 11
32328.244000
 21
10274.796250
 0
LINE
 8
001
 62
3
 10
33187.835250
 20
9698.047500
 11
32968.175750
 21
9917.707250
 0
LINE
 8
001
 62
3
 10
32862.109750
 20
10023.773250
 11
32469.665500
 21
10416.217500
 0
LINE
 8
001
 62
3
 10
32826.754250
 20
8821.691750
 11
33038.886250
 21
9033.823750
 0
LINE
 8
001
 62
3
 10
33710.637750
 20
9705.575250
 11
33922.769750
 21
9917.707250
 0
LINE
 8
001
 62
3
 10
33187.835250
 20
8899.930000
 11
32968.175750
 21
8680.270250
 0
LINE
 8
001
 62
3
 10
34064.191250
 20
9776.285750
 11
33844.531500
 21
9556.626250
 0
LINE
 8
001
 6
CENTER
 62
3
 10
25988.109000
 20
13107.175750
 11
25988.109000
 21
12268.668250
 0
LINE
 8
001
 6
CENTER
 62
3
 10
25838.109000
 20
13165.028250
 11
25838.109000
 21
12225.267500
 0
LINE
 8
001
 62
3
 10
26088.109000
 20
12389.915500
 11
26088.109000
 21
12386.915500
 0
LINE
 8
001
 62
3
 10
25888.109000
 20
12389.915500
 11
25888.109000
 21
12386.915500
 0
LINE
 8
001
 62
3
 10
26088.109000
 20
12763.915500
 11
26088.109000
 21
12766.915500
 0
LINE
 8
001
 62
3
 10
25888.109000
 20
12763.915500
 11
25888.109000
 21
12766.915500
 0
LINE
 8
001
 62
3
 10
25888.109000
 20
12977.915500
 11
25888.109000
 21
12376.915500
 0
LINE
 8
001
 62
3
 10
26088.109000
 20
12977.915500
 11
26088.109000
 21
12376.915500
 0
LINE
 8
001
 62
3
 10
25898.109000
 20
12376.915500
 11
25898.109000
 21
12357.915500
 0
LINE
 8
001
 62
3
 10
26078.109000
 20
12376.915500
 11
26078.109000
 21
12357.915500
 0
LINE
 8
001
 62
3
 10
25888.109000
 20
12376.915500
 11
26088.109000
 21
12376.915500
 0
LINE
 8
001
 62
3
 10
25759.722500
 20
12357.915500
 11
26209.699250
 21
12357.915500
 0
LINE
 8
001
 62
3
 10
25888.109000
 20
12393.915500
 11
26088.109000
 21
12393.915500
 0
LINE
 8
001
 6
PHANTOM
 62
3
 10
25862.109000
 20
12976.915500
 11
25862.109000
 21
12244.268000
 0
LINE
 8
001
 6
PHANTOM
 62
3
 10
25814.109000
 20
12976.915500
 11
25814.109000
 21
12244.268000
 0
LINE
 8
001
 62
3
 10
25814.109000
 20
13147.915500
 11
25862.109000
 21
13147.915500
 0
LINE
 8
001
 62
3
 10
25888.109000
 20
12959.915500
 11
26088.109000
 21
12959.915500
 0
LINE
 8
001
 62
3
 10
25778.109000
 20
12976.915500
 11
26198.109000
 21
12976.915500
 0
LINE
 8
001
 62
3
 10
26198.109000
 20
13026.915500
 11
26198.109000
 21
12976.915500
 0
LINE
 8
001
 62
3
 10
25778.109000
 20
13026.915500
 11
25778.109000
 21
12976.915500
 0
LINE
 8
001
 62
3
 10
25778.109000
 20
13026.915500
 11
26198.109000
 21
13026.915500
 0
LINE
 8
001
 62
3
 10
25898.109000
 20
13051.915500
 11
25898.109000
 21
13026.915500
 0
LINE
 8
001
 62
3
 10
25778.109000
 20
13051.915500
 11
25778.109000
 21
13026.915500
 0
LINE
 8
001
 62
3
 10
25778.109000
 20
13051.915500
 11
25898.109000
 21
13051.915500
 0
LINE
 8
001
 62
3
 10
25862.109000
 20
13127.915500
 11
25814.109000
 21
13127.915500
 0
LINE
 8
001
 62
3
 10
25881.410250
 20
13123.700000
 11
25881.410250
 21
13089.915500
 0
LINE
 8
001
 62
3
 10
25794.807750
 20
13123.700000
 11
25794.807750
 21
13089.915500
 0
LINE
 8
001
 62
3
 10
25816.458500
 20
13117.377000
 11
25816.458500
 21
13089.915500
 0
LINE
 8
001
 62
3
 10
25859.759750
 20
13117.377000
 11
25859.759750
 21
13089.915500
 0
LINE
 8
001
 62
3
 10
25874.109000
 20
13127.915500
 11
25881.410250
 21
13123.700000
 0
LINE
 8
001
 62
3
 10
25794.807750
 20
13123.700000
 11
25802.109000
 21
13127.915500
 0
ARC
 8
001
 62
3
 10
25870.585000
 20
13117.086250
 40
10.829250
 50
1.538344
 51
178.461656
 0
ARC
 8
001
 62
3
 10
25838.109000
 20
13100.406250
 40
27.509250
 50
38.090766
 51
141.909234
 0
ARC
 8
001
 62
3
 10
25805.633250
 20
13117.086250
 40
10.829250
 50
1.538344
 51
178.461656
 0
LINE
 8
001
 62
3
 10
25881.410250
 20
13089.915500
 11
25794.807750
 21
13089.915500
 0
LINE
 8
001
 62
3
 10
25862.109000
 20
13147.915500
 11
25862.109000
 21
13127.915500
 0
LINE
 8
001
 62
3
 10
25814.109000
 20
13147.915500
 11
25814.109000
 21
13127.915500
 0
ARC
 8
001
 62
3
 10
25825.587500
 20
12255.280500
 40
15.907000
 50
223.813345
 51
321.921733
 0
ARC
 8
001
 62
3
 10
25850.630500
 20
12255.280500
 40
15.907000
 50
218.078267
 51
316.186655
 0
ARC
 8
001
 62
3
 10
25850.630500
 20
12235.233750
 40
15.907000
 50
43.813345
 51
141.921733
 0
LINE
 8
001
 6
CENTER
 62
3
 10
26138.109000
 20
13165.028250
 11
26138.109000
 21
12225.267500
 0
LINE
 8
001
 62
3
 10
26088.109000
 20
12389.915500
 11
26088.109000
 21
12386.915500
 0
LINE
 8
001
 62
3
 10
26088.109000
 20
12763.915500
 11
26088.109000
 21
12766.915500
 0
LINE
 8
001
 62
3
 10
26088.109000
 20
12977.915500
 11
26088.109000
 21
12376.915500
 0
LINE
 8
001
 62
3
 10
26078.109000
 20
12376.915500
 11
26078.109000
 21
12357.915500
 0
LINE
 8
001
 62
3
 10
26088.109000
 20
12410.915500
 11
26088.109000
 21
12393.915500
 0
LINE
 8
001
 6
PHANTOM
 62
3
 10
26114.109000
 20
12976.915500
 11
26114.109000
 21
12244.268000
 0
LINE
 8
001
 6
PHANTOM
 62
3
 10
26162.109000
 20
12976.915500
 11
26162.109000
 21
12244.268000
 0
LINE
 8
001
 62
3
 10
26162.109000
 20
13147.915500
 11
26114.109000
 21
13147.915500
 0
LINE
 8
001
 62
3
 10
26198.109000
 20
13026.915500
 11
26198.109000
 21
12976.915500
 0
LINE
 8
001
 62
3
 10
26088.109000
 20
12393.915500
 11
26088.109000
 21
12376.915500
 0
LINE
 8
001
 62
3
 10
26088.109000
 20
12959.915500
 11
26088.109000
 21
12976.915500
 0
LINE
 8
001
 62
3
 10
26078.109000
 20
13051.915500
 11
26078.109000
 21
13026.915500
 0
LINE
 8
001
 62
3
 10
26198.109000
 20
13051.915500
 11
26198.109000
 21
13026.915500
 0
LINE
 8
001
 62
3
 10
26198.109000
 20
13051.915500
 11
26078.109000
 21
13051.915500
 0
LINE
 8
001
 62
3
 10
26102.109000
 20
13089.915500
 11
26174.109000
 21
13089.915500
 0
LINE
 8
001
 62
3
 10
26094.807750
 20
13085.700000
 11
26094.807750
 21
13051.915500
 0
LINE
 8
001
 62
3
 10
26181.410250
 20
13085.700000
 11
26181.410250
 21
13051.915500
 0
LINE
 8
001
 62
3
 10
26159.759750
 20
13079.377000
 11
26159.759750
 21
13051.915500
 0
LINE
 8
001
 62
3
 10
26116.458500
 20
13079.377000
 11
26116.458500
 21
13051.915500
 0
LINE
 8
001
 62
3
 10
26102.109000
 20
13089.915500
 11
26094.807750
 21
13085.700000
 0
LINE
 8
001
 62
3
 10
26181.410250
 20
13085.700000
 11
26174.109000
 21
13089.915500
 0
ARC
 8
001
 62
3
 10
26105.633250
 20
13079.086250
 40
10.829250
 50
1.538344
 51
178.461656
 0
ARC
 8
001
 62
3
 10
26138.109000
 20
13062.406250
 40
27.509250
 50
38.090766
 51
141.909234
 0
ARC
 8
001
 62
3
 10
26170.585000
 20
13079.086250
 40
10.829250
 50
1.538344
 51
178.461656
 0
LINE
 8
001
 62
3
 10
26094.807750
 20
13051.915500
 11
26181.410250
 21
13051.915500
 0
LINE
 8
001
 62
3
 10
26114.109000
 20
13127.915500
 11
26162.109000
 21
13127.915500
 0
LINE
 8
001
 62
3
 10
26094.807750
 20
13123.700000
 11
26094.807750
 21
13089.915500
 0
LINE
 8
001
 62
3
 10
26181.410250
 20
13123.700000
 11
26181.410250
 21
13089.915500
 0
LINE
 8
001
 62
3
 10
26159.759750
 20
13117.377000
 11
26159.759750
 21
13089.915500
 0
LINE
 8
001
 62
3
 10
26116.458500
 20
13117.377000
 11
26116.458500
 21
13089.915500
 0
LINE
 8
001
 62
3
 10
26102.109000
 20
13127.915500
 11
26094.807750
 21
13123.700000
 0
LINE
 8
001
 62
3
 10
26181.410250
 20
13123.700000
 11
26174.109000
 21
13127.915500
 0
ARC
 8
001
 62
3
 10
26105.633250
 20
13117.086250
 40
10.829250
 50
1.538344
 51
178.461656
 0
ARC
 8
001
 62
3
 10
26138.109000
 20
13100.406250
 40
27.509250
 50
38.090766
 51
141.909234
 0
ARC
 8
001
 62
3
 10
26170.585000
 20
13117.086250
 40
10.829250
 50
1.538344
 51
178.461656
 0
LINE
 8
001
 62
3
 10
26094.807750
 20
13089.915500
 11
26181.410250
 21
13089.915500
 0
LINE
 8
001
 62
3
 10
26114.109000
 20
13147.915500
 11
26114.109000
 21
13127.915500
 0
LINE
 8
001
 62
3
 10
26162.109000
 20
13147.915500
 11
26162.109000
 21
13127.915500
 0
ARC
 8
001
 62
3
 10
26150.630500
 20
12255.280500
 40
15.907000
 50
218.078267
 51
316.186655
 0
ARC
 8
001
 62
3
 10
26125.587500
 20
12255.280500
 40
15.907000
 50
223.813345
 51
321.921733
 0
ARC
 8
001
 62
3
 10
26125.587500
 20
12235.233750
 40
15.907000
 50
38.078267
 51
136.186655
 0
LINE
 8
001
 6
CENTER
 62
3
 10
21988.109000
 20
13049.494250
 11
21988.109000
 21
12291.284750
 0
LINE
 8
001
 6
CENTER
 62
3
 10
22088.109000
 20
13178.286250
 11
22088.109000
 21
12266.330750
 0
LINE
 8
001
 62
3
 10
21303.806500
 20
12376.915500
 11
22168.109000
 21
12376.915500
 0
LINE
 8
001
 62
3
 10
21863.109000
 20
12357.915500
 11
22113.109000
 21
12357.915500
 0
LINE
 8
001
 62
3
 10
22025.609000
 20
12976.915500
 11
22168.109000
 21
12976.915500
 0
LINE
 8
001
 62
3
 10
21888.109000
 20
12376.915500
 11
22088.109000
 21
12376.915500
 0
LINE
 8
001
 62
3
 10
21257.455500
 20
12976.915500
 11
22088.109000
 21
12976.915500
 0
LINE
 8
001
 62
3
 10
22088.109000
 20
12959.915500
 11
22088.109000
 21
12976.915500
 0
LINE
 8
001
 62
3
 10
21888.109000
 20
12959.915500
 11
21888.109000
 21
12976.915500
 0
LINE
 8
001
 62
3
 10
22088.109000
 20
12959.915500
 11
22088.109000
 21
12976.915500
 0
LINE
 8
001
 62
3
 10
21246.311250
 20
12959.915500
 11
22168.109000
 21
12959.915500
 0
LINE
 8
001
 62
3
 10
21312.745750
 20
12393.915500
 11
22168.109000
 21
12393.915500
 0
LINE
 8
001
 62
3
 10
22150.609000
 20
12959.915500
 11
22150.609000
 21
12393.915500
 0
LINE
 8
001
 62
3
 10
22025.609000
 20
12959.915500
 11
22025.609000
 21
12393.915500
 0
LINE
 8
001
 62
3
 10
22168.109000
 20
12976.915500
 11
22168.109000
 21
12376.915500
 0
LINE
 8
001
 62
3
 10
21950.609000
 20
12959.915500
 11
21950.609000
 21
12393.915500
 0
LINE
 8
001
 62
3
 10
21825.609000
 20
12959.915500
 11
21825.609000
 21
12393.915500
 0
LINE
 8
001
 62
3
 10
22025.609000
 20
13026.915500
 11
22150.609000
 21
13026.915500
 0
LINE
 8
001
 62
3
 10
22150.609000
 20
13026.915500
 11
22150.609000
 21
12976.915500
 0
LINE
 8
001
 62
3
 10
22025.609000
 20
13026.915500
 11
22025.609000
 21
12976.915500
 0
LINE
 8
001
 62
3
 10
22028.109000
 20
13051.915500
 11
22148.109000
 21
13051.915500
 0
LINE
 8
001
 62
3
 10
22148.109000
 20
13051.915500
 11
22148.109000
 21
13026.915500
 0
LINE
 8
001
 62
3
 10
22028.109000
 20
13051.915500
 11
22028.109000
 21
13026.915500
 0
LINE
 8
001
 62
3
 10
22124.109000
 20
13127.915500
 11
22052.109000
 21
13127.915500
 0
LINE
 8
001
 62
3
 10
22131.410250
 20
13123.700000
 11
22131.410250
 21
13089.915500
 0
LINE
 8
001
 62
3
 10
22044.807750
 20
13123.700000
 11
22044.807750
 21
13089.915500
 0
LINE
 8
001
 62
3
 10
22066.458500
 20
13117.377000
 11
22066.458500
 21
13089.915500
 0
LINE
 8
001
 62
3
 10
22109.759750
 20
13117.377000
 11
22109.759750
 21
13089.915500
 0
LINE
 8
001
 62
3
 10
22124.109000
 20
13127.915500
 11
22131.410250
 21
13123.700000
 0
LINE
 8
001
 62
3
 10
22044.807750
 20
13123.700000
 11
22052.109000
 21
13127.915500
 0
ARC
 8
001
 62
3
 10
22120.585000
 20
13117.086250
 40
10.829250
 50
1.538344
 51
178.461656
 0
ARC
 8
001
 62
3
 10
22088.109000
 20
13100.406250
 40
27.509250
 50
38.090766
 51
141.909234
 0
ARC
 8
001
 62
3
 10
22055.633250
 20
13117.086250
 40
10.829250
 50
1.538344
 51
178.461656
 0
LINE
 8
001
 62
3
 10
22131.410250
 20
13089.915500
 11
22044.807750
 21
13089.915500
 0
LINE
 8
001
 62
3
 10
22112.109000
 20
13147.915500
 11
22064.109000
 21
13147.915500
 0
LINE
 8
001
 62
3
 10
22112.109000
 20
13147.915500
 11
22112.109000
 21
13127.915500
 0
LINE
 8
001
 62
3
 10
22064.109000
 20
13147.915500
 11
22064.109000
 21
13127.915500
 0
LINE
 8
001
 6
CENTER
 62
3
 10
21888.109000
 20
13178.286250
 11
21888.109000
 21
12266.330750
 0
LINE
 8
001
 62
3
 10
21950.609000
 20
13026.915500
 11
21825.609000
 21
13026.915500
 0
LINE
 8
001
 62
3
 10
21825.609000
 20
13026.915500
 11
21825.609000
 21
12976.915500
 0
LINE
 8
001
 62
3
 10
21950.609000
 20
13026.915500
 11
21950.609000
 21
12976.915500
 0
LINE
 8
001
 62
3
 10
21948.109000
 20
13051.915500
 11
21828.109000
 21
13051.915500
 0
LINE
 8
001
 62
3
 10
21828.109000
 20
13051.915500
 11
21828.109000
 21
13026.915500
 0
LINE
 8
001
 62
3
 10
21948.109000
 20
13051.915500
 11
21948.109000
 21
13026.915500
 0
LINE
 8
001
 62
3
 10
21852.109000
 20
13089.915500
 11
21924.109000
 21
13089.915500
 0
LINE
 8
001
 62
3
 10
21844.807750
 20
13085.700000
 11
21844.807750
 21
13051.915500
 0
LINE
 8
001
 62
3
 10
21931.410250
 20
13085.700000
 11
21931.410250
 21
13051.915500
 0
LINE
 8
001
 62
3
 10
21909.759750
 20
13079.377000
 11
21909.759750
 21
13051.915500
 0
LINE
 8
001
 62
3
 10
21866.458500
 20
13079.377000
 11
21866.458500
 21
13051.915500
 0
LINE
 8
001
 62
3
 10
21852.109000
 20
13089.915500
 11
21844.807750
 21
13085.700000
 0
LINE
 8
001
 62
3
 10
21931.410250
 20
13085.700000
 11
21924.109000
 21
13089.915500
 0
ARC
 8
001
 62
3
 10
21855.633250
 20
13079.086250
 40
10.829250
 50
1.538344
 51
178.461656
 0
ARC
 8
001
 62
3
 10
21888.109000
 20
13062.406250
 40
27.509250
 50
38.090766
 51
141.909234
 0
ARC
 8
001
 62
3
 10
21920.585000
 20
13079.086250
 40
10.829250
 50
1.538344
 51
178.461656
 0
LINE
 8
001
 62
3
 10
21844.807750
 20
13051.915500
 11
21931.410250
 21
13051.915500
 0
LINE
 8
001
 62
3
 10
21852.109000
 20
13127.915500
 11
21924.109000
 21
13127.915500
 0
LINE
 8
001
 62
3
 10
21844.807750
 20
13123.700000
 11
21844.807750
 21
13089.915500
 0
LINE
 8
001
 62
3
 10
21931.410250
 20
13123.700000
 11
21931.410250
 21
13089.915500
 0
LINE
 8
001
 62
3
 10
21909.759750
 20
13117.377000
 11
21909.759750
 21
13089.915500
 0
LINE
 8
001
 62
3
 10
21866.458500
 20
13117.377000
 11
21866.458500
 21
13089.915500
 0
LINE
 8
001
 62
3
 10
21852.109000
 20
13127.915500
 11
21844.807750
 21
13123.700000
 0
LINE
 8
001
 62
3
 10
21931.410250
 20
13123.700000
 11
21924.109000
 21
13127.915500
 0
ARC
 8
001
 62
3
 10
21855.633250
 20
13117.086250
 40
10.829250
 50
1.538344
 51
178.461656
 0
ARC
 8
001
 62
3
 10
21888.109000
 20
13100.406250
 40
27.509250
 50
38.090766
 51
141.909234
 0
ARC
 8
001
 62
3
 10
21920.585000
 20
13117.086250
 40
10.829250
 50
1.538344
 51
178.461656
 0
LINE
 8
001
 62
3
 10
21844.807750
 20
13089.915500
 11
21931.410250
 21
13089.915500
 0
LINE
 8
001
 62
3
 10
21864.109000
 20
13147.915500
 11
21912.109000
 21
13147.915500
 0
LINE
 8
001
 62
3
 10
21864.109000
 20
13147.915500
 11
21864.109000
 21
13127.915500
 0
LINE
 8
001
 62
3
 10
21912.109000
 20
13147.915500
 11
21912.109000
 21
13127.915500
 0
LINE
 8
001
 62
3
 10
22113.109000
 20
12376.915500
 11
22113.109000
 21
12357.915500
 0
LINE
 8
001
 62
3
 10
21863.109000
 20
12376.915500
 11
21863.109000
 21
12357.915500
 0
LINE
 8
001
 62
3
 10
11718.645750
 20
7837.151000
 11
16718.645750
 21
7837.151000
 0
POLYLINE
 8
001
 62
3
 66
1
 0
VERTEX
 8
001
 62
3
 10
21337.101500
 20
13084.790500
 0
VERTEX
 8
001
 62
3
 10
21295.222000
 20
13030.120500
 0
VERTEX
 8
001
 62
3
 10
21256.624250
 20
12975.316500
 0
VERTEX
 8
001
 62
3
 10
21223.269250
 20
12920.601000
 0
VERTEX
 8
001
 62
3
 10
21197.119000
 20
12866.195500
 0
VERTEX
 8
001
 62
3
 10
21180.134750
 20
12812.322250
 0
VERTEX
 8
001
 62
3
 10
21174.278000
 20
12759.203000
 0
VERTEX
 8
001
 62
3
 10
21181.510250
 20
12707.060000
 0
VERTEX
 8
001
 62
3
 10
21203.793250
 20
12656.115000
 0
VERTEX
 8
001
 62
3
 10
21219.653750
 20
12632.790750
 0
VERTEX
 8
001
 62
3
 10
21237.963750
 20
12609.678750
 0
VERTEX
 8
001
 62
3
 10
21257.466750
 20
12586.682250
 0
VERTEX
 8
001
 62
3
 10
21276.906250
 20
12563.704500
 0
VERTEX
 8
001
 62
3
 10
21295.025500
 20
12540.648750
 0
VERTEX
 8
001
 62
3
 10
21310.568750
 20
12517.417750
 0
VERTEX
 8
001
 62
3
 10
21322.279000
 20
12493.914750
 0
VERTEX
 8
001
 62
3
 10
21328.900250
 20
12470.043250
 0
VERTEX
 8
001
 62
3
 10
21329.303250
 20
12443.761500
 0
VERTEX
 8
001
 62
3
 10
21323.227250
 20
12417.004250
 0
VERTEX
 8
001
 62
3
 10
21311.597500
 20
12389.839500
 0
VERTEX
 8
001
 62
3
 10
21295.340000
 20
12362.335250
 0
VERTEX
 8
001
 62
3
 10
21275.379750
 20
12334.559250
 0
VERTEX
 8
001
 62
3
 10
21252.643000
 20
12306.579250
 0
VERTEX
 8
001
 62
3
 10
21228.055000
 20
12278.463500
 0
VERTEX
 8
001
 62
3
 10
21202.541250
 20
12250.280000
 0
SEQEND
 8
001
 0
LINE
 8
001
 62
3
 10
11618.645750
 20
58721.252250
 11
15218.645750
 21
58721.252250
 0
LINE
 8
001
 62
3
 10
11463.645750
 20
55751.252250
 11
12438.645750
 21
55751.252250
 0
LINE
 8
001
 62
3
 10
10113.645750
 20
58148.252250
 11
10113.645750
 21
56754.252250
 0
LINE
 8
001
 62
3
 10
10113.645750
 20
58148.252250
 11
10718.645750
 21
58148.252250
 0
LINE
 8
001
 62
3
 10
10113.645750
 20
56754.252250
 11
10718.645750
 21
56754.252250
 0
LINE
 8
001
 62
3
 10
10648.645750
 20
58148.252250
 11
10648.645750
 21
56754.252250
 0
LINE
 8
001
 62
3
 10
10718.645750
 20
58148.252250
 11
10718.645750
 21
56754.252250
 0
LINE
 8
001
 62
3
 10
15618.645750
 20
58241.252250
 11
15618.645750
 21
56661.252250
 0
LINE
 8
001
 62
3
 10
11353.645750
 20
58241.252250
 11
11353.645750
 21
56661.252250
 0
LINE
 8
001
 62
3
 10
15218.645750
 20
58721.252250
 11
15218.645750
 21
58271.252250
 0
LINE
 8
001
 62
3
 10
11353.645750
 20
56661.252250
 11
15618.645750
 21
56661.252250
 0
LINE
 8
001
 62
3
 10
12703.645750
 20
55951.252250
 11
15518.645750
 21
55951.252250
 0
LINE
 8
001
 62
3
 10
15518.645750
 20
56601.252250
 11
15518.645750
 21
55951.252250
 0
LINE
 8
001
 62
3
 10
12648.645750
 20
56601.252250
 11
12648.645750
 21
56591.252250
 0
LINE
 8
001
 62
3
 10
11463.645750
 20
56601.252250
 11
11463.645750
 21
55751.252250
 0
LINE
 8
001
 62
3
 10
11618.645750
 20
58721.252250
 11
11618.645750
 21
58271.252250
 0
CIRCLE
 8
001
 62
3
 10
14218.645750
 20
57451.252250
 40
615.000000
 0
LINE
 8
001
 6
CENTER
 62
3
 10
12918.645750
 20
57782.687250
 11
12918.645750
 21
56327.705750
 0
LINE
 8
001
 6
CENTER
 62
3
 10
12238.645750
 20
57940.423250
 11
12238.645750
 21
56824.311000
 0
LINE
 8
001
 62
3
 10
11668.645750
 20
56401.252250
 11
12268.645750
 21
56401.252250
 0
LINE
 8
001
 62
3
 10
12268.645750
 20
56651.252250
 11
12268.645750
 21
56401.252250
 0
LINE
 8
001
 62
3
 10
11668.645750
 20
56651.252250
 11
11668.645750
 21
56401.252250
 0
LINE
 8
001
 62
3
 10
11668.645750
 20
56651.252250
 11
12268.645750
 21
56651.252250
 0
LINE
 8
001
 62
3
 10
11463.645750
 20
56601.252250
 11
11668.645750
 21
56601.252250
 0
LINE
 8
001
 62
3
 10
12268.645750
 20
56601.252250
 11
12438.645750
 21
56601.252250
 0
LINE
 8
001
 62
3
 10
13078.645750
 20
57423.252250
 11
13078.645750
 21
57119.252250
 0
LINE
 8
001
 62
3
 10
12758.645750
 20
57423.252250
 11
12758.645750
 21
57119.252250
 0
LINE
 8
001
 62
3
 10
12078.645750
 20
57423.252250
 11
12398.645750
 21
57423.252250
 0
LINE
 8
001
 62
3
 10
12646.145750
 20
57423.252250
 11
13188.645750
 21
57423.252250
 0
LINE
 8
001
 62
3
 10
12006.145750
 20
57119.252250
 11
12471.145750
 21
57119.252250
 0
LINE
 8
001
 62
3
 10
12758.645750
 20
57119.252250
 11
13078.645750
 21
57119.252250
 0
LINE
 8
001
 62
3
 10
12743.645750
 20
56409.252250
 11
13093.645750
 21
56409.252250
 0
LINE
 8
001
 62
3
 10
15018.645750
 20
57826.840750
 11
15018.645750
 21
57075.663500
 0
LINE
 8
001
 62
3
 10
15037.894250
 20
57866.266000
 11
15518.645750
 21
58241.252250
 0
LINE
 8
001
 62
3
 10
15037.894250
 20
57036.238500
 11
15518.645750
 21
56661.252250
 0
ARC
 8
001
 62
3
 10
15068.645750
 20
57826.840750
 40
50.000000
 50
127.954231
 51
180.000000
 0
ARC
 8
001
 62
3
 10
15068.645750
 20
57075.663500
 40
50.000000
 50
180.000000
 51
232.045769
 0
LINE
 8
001
 62
3
 10
14563.645750
 20
58573.252250
 11
14563.645750
 21
58241.252250
 0
LINE
 8
001
 62
3
 10
13873.645750
 20
58573.252250
 11
13873.645750
 21
58241.252250
 0
LINE
 8
001
 62
3
 10
14023.645750
 20
58673.252250
 11
14413.645750
 21
58673.252250
 0
LINE
 8
001
 62
3
 10
14413.645750
 20
58673.252250
 11
14563.645750
 21
58573.252250
 0
LINE
 8
001
 62
3
 10
14023.645750
 20
58673.252250
 11
13873.645750
 21
58573.252250
 0
LINE
 8
001
 62
3
 10
14458.645750
 20
58470.752250
 11
14458.645750
 21
58315.752250
 0
LINE
 8
001
 62
3
 10
13978.645750
 20
58470.752250
 11
13978.645750
 21
58315.752250
 0
LINE
 8
001
 62
3
 10
11618.645750
 20
58271.252250
 11
13873.645750
 21
58271.252250
 0
LINE
 8
001
 62
3
 10
14563.645750
 20
58271.252250
 11
15218.645750
 21
58271.252250
 0
LINE
 8
001
 62
3
 10
11353.645750
 20
58241.252250
 11
13955.645750
 21
58241.252250
 0
LINE
 8
001
 62
3
 10
14481.645750
 20
58241.252250
 11
15618.645750
 21
58241.252250
 0
LINE
 8
001
 62
3
 10
13955.645750
 20
58241.252250
 11
13973.109750
 21
58176.075750
 0
LINE
 8
001
 62
3
 10
14128.645750
 20
58620.752250
 11
14308.645750
 21
58620.752250
 0
LINE
 8
001
 62
3
 10
14128.645750
 20
58165.752250
 11
14308.645750
 21
58165.752250
 0
ARC
 8
001
 62
3
 10
14128.645750
 20
58470.752250
 40
150.000000
 50
90.000000
 51
180.000000
 0
ARC
 8
001
 62
3
 10
14128.645750
 20
58315.752250
 40
150.000000
 50
180.000000
 51
270.000000
 0
ARC
 8
001
 62
3
 10
14308.645750
 20
58470.752250
 40
150.000000
 50
0.000000
 51
90.000000
 0
ARC
 8
001
 62
3
 10
14308.645750
 20
58315.752250
 40
150.000000
 50
270.000000
 51
360.000000
 0
LINE
 8
001
 62
3
 10
13992.428250
 20
58161.252250
 11
14444.863250
 21
58161.252250
 0
ARC
 8
001
 62
3
 10
13992.428250
 20
58181.252250
 40
20.000000
 50
195.000000
 51
270.000000
 0
LINE
 8
001
 62
3
 10
14481.645750
 20
58241.252250
 11
14464.181750
 21
58176.075750
 0
ARC
 8
001
 62
3
 10
14444.863250
 20
58181.252250
 40
20.000000
 50
270.000000
 51
345.000000
 0
LINE
 8
001
 62
3
 10
13418.645750
 20
57769.741000
 11
13418.645750
 21
57132.763250
 0
LINE
 8
001
 62
3
 10
12498.645750
 20
58241.252250
 11
13390.218500
 21
57814.847750
 0
LINE
 8
001
 62
3
 10
13188.645750
 20
57473.252250
 11
13188.645750
 21
57423.252250
 0
ARC
 8
001
 62
3
 10
13368.645750
 20
57769.741000
 40
50.000000
 50
0.000000
 51
64.440035
 0
ARC
 8
001
 62
3
 10
13368.645750
 20
57132.763250
 40
50.000000
 50
295.559965
 51
360.000000
 0
LINE
 8
001
 62
3
 10
12398.645750
 20
57423.252250
 11
12398.645750
 21
57119.252250
 0
LINE
 8
001
 62
3
 10
12078.645750
 20
57423.252250
 11
12078.645750
 21
57119.252250
 0
LINE
 8
001
 6
CENTER
 62
3
 10
11930.813250
 20
57271.252250
 11
12516.847250
 21
57271.252250
 0
LINE
 8
001
 6
CENTER
 62
3
 10
12682.553250
 20
57271.252250
 11
13199.125000
 21
57271.252250
 0
LINE
 8
001
 62
3
 10
12778.645750
 20
57687.252250
 11
13058.645750
 21
57687.252250
 0
LINE
 8
001
 62
3
 10
12646.145750
 20
57473.252250
 11
12646.145750
 21
57423.252250
 0
LINE
 8
001
 62
3
 10
12646.145750
 20
57473.252250
 11
13188.645750
 21
57473.252250
 0
LINE
 8
001
 62
3
 10
12758.645750
 20
57493.252250
 11
13078.645750
 21
57493.252250
 0
LINE
 8
001
 62
3
 10
13078.645750
 20
57493.252250
 11
13188.645750
 21
57473.252250
 0
LINE
 8
001
 62
3
 10
12758.645750
 20
57493.252250
 11
12646.145750
 21
57473.252250
 0
LINE
 8
001
 62
3
 10
13058.645750
 20
57687.252250
 11
13078.645750
 21
57493.252250
 0
LINE
 8
001
 62
3
 10
12778.645750
 20
57687.252250
 11
12758.645750
 21
57493.252250
 0
LINE
 8
001
 62
3
 10
12646.145750
 20
57119.252250
 11
13188.645750
 21
57119.252250
 0
LINE
 8
001
 62
3
 10
13188.645750
 20
57069.252250
 11
13188.645750
 21
57119.252250
 0
LINE
 8
001
 62
3
 10
12646.145750
 20
57069.252250
 11
12646.145750
 21
57119.252250
 0
LINE
 8
001
 62
3
 10
12646.145750
 20
57069.252250
 11
13188.645750
 21
57069.252250
 0
LINE
 8
001
 62
3
 10
12758.645750
 20
57049.252250
 11
13078.645750
 21
57049.252250
 0
LINE
 8
001
 62
3
 10
13078.645750
 20
57049.252250
 11
13188.645750
 21
57069.252250
 0
LINE
 8
001
 62
3
 10
12758.645750
 20
57049.252250
 11
12646.145750
 21
57069.252250
 0
LINE
 8
001
 62
3
 10
13093.645750
 20
57034.252250
 11
13093.645750
 21
56989.252250
 0
LINE
 8
001
 62
3
 10
12743.645750
 20
56989.252250
 11
13093.645750
 21
56989.252250
 0
LINE
 8
001
 62
3
 10
12758.645750
 20
57034.252250
 11
13093.645750
 21
57034.252250
 0
LINE
 8
001
 62
3
 10
13078.645750
 20
57049.252250
 11
13078.645750
 21
57034.252250
 0
LINE
 8
001
 62
3
 10
13078.645750
 20
57034.252250
 11
12743.645750
 21
57034.252250
 0
LINE
 8
001
 62
3
 10
12758.645750
 20
57049.252250
 11
12758.645750
 21
57034.252250
 0
LINE
 8
001
 62
3
 10
12768.013750
 20
56889.252250
 11
13069.277750
 21
56889.252250
 0
LINE
 8
001
 62
3
 10
12743.645750
 20
56424.252250
 11
13093.645750
 21
56424.252250
 0
LINE
 8
001
 62
3
 10
12743.645750
 20
56542.913250
 11
13093.645750
 21
56542.913250
 0
LINE
 8
001
 62
3
 10
12743.645750
 20
56424.252250
 11
12743.645750
 21
56409.252250
 0
LINE
 8
001
 62
3
 10
12743.645750
 20
56581.252250
 11
12768.013750
 21
56542.913250
 0
LINE
 8
001
 62
3
 10
12743.645750
 20
56542.913250
 11
12743.645750
 21
56466.807500
 0
LINE
 8
001
 62
3
 10
12743.645750
 20
56850.913500
 11
13093.645750
 21
56850.913500
 0
LINE
 8
001
 62
3
 10
12743.645750
 20
56850.913500
 11
12768.013750
 21
56889.252250
 0
LINE
 8
001
 62
3
 10
12743.645750
 20
56542.913250
 11
12743.645750
 21
56449.333750
 0
LINE
 8
001
 62
3
 10
12648.645750
 20
56601.252250
 11
12743.645750
 21
56601.252250
 0
LINE
 8
001
 62
3
 10
13093.645750
 20
56601.252250
 11
15518.645750
 21
56601.252250
 0
LINE
 8
001
 62
3
 10
12743.645750
 20
56850.913500
 11
12743.645750
 21
56581.252250
 0
LINE
 8
001
 62
3
 10
12743.645750
 20
57034.252250
 11
12743.645750
 21
56989.252250
 0
LINE
 8
001
 62
3
 10
12743.645750
 20
56581.252250
 11
12918.645750
 21
56581.252250
 0
LINE
 8
001
 62
3
 10
12743.645750
 20
56449.333750
 11
12792.477000
 21
56424.252250
 0
LINE
 8
001
 62
3
 10
12743.645750
 20
56449.333750
 11
12918.645750
 21
56449.333750
 0
LINE
 8
001
 62
3
 10
12743.645750
 20
56850.913500
 11
12743.645750
 21
56601.252250
 0
LINE
 8
001
 62
3
 10
12743.645750
 20
57034.252250
 11
12743.645750
 21
56989.252250
 0
LINE
 8
001
 62
3
 10
12758.645750
 20
56989.252250
 11
12768.013750
 21
56889.252250
 0
LINE
 8
001
 62
3
 10
13078.645750
 20
56989.252250
 11
13069.277750
 21
56889.252250
 0
LINE
 8
001
 62
3
 10
13069.277750
 20
56889.252250
 11
12768.013750
 21
56889.252250
 0
LINE
 8
001
 62
3
 10
13093.645750
 20
56850.913500
 11
12743.645750
 21
56850.913500
 0
LINE
 8
001
 62
3
 10
13093.645750
 20
56850.913500
 11
13069.277750
 21
56889.252250
 0
LINE
 8
001
 62
3
 10
13093.645750
 20
56850.913500
 11
13093.645750
 21
56581.252250
 0
LINE
 8
001
 62
3
 10
13093.645750
 20
56850.913500
 11
13093.645750
 21
56601.252250
 0
LINE
 8
001
 62
3
 10
13078.645750
 20
56989.252250
 11
13069.277750
 21
56889.252250
 0
LINE
 8
001
 62
3
 10
13093.645750
 20
56581.252250
 11
13069.277750
 21
56542.913250
 0
LINE
 8
001
 62
3
 10
13093.645750
 20
56850.913500
 11
13093.645750
 21
56581.252250
 0
LINE
 8
001
 62
3
 10
13093.645750
 20
56581.252250
 11
12918.645750
 21
56581.252250
 0
LINE
 8
001
 62
3
 10
13093.645750
 20
56542.913250
 11
13093.645750
 21
56449.333750
 0
LINE
 8
001
 62
3
 10
13093.645750
 20
56449.333750
 11
13044.814500
 21
56424.252250
 0
LINE
 8
001
 62
3
 10
13093.645750
 20
56449.333750
 11
12918.645750
 21
56449.333750
 0
LINE
 8
001
 62
3
 10
13093.645750
 20
56409.252250
 11
12743.645750
 21
56409.252250
 0
LINE
 8
001
 62
3
 10
13093.645750
 20
56424.252250
 11
12743.645750
 21
56424.252250
 0
LINE
 8
001
 62
3
 10
13093.645750
 20
56424.252250
 11
13093.645750
 21
56409.252250
 0
LINE
 8
001
 62
3
 10
12498.645750
 20
56661.252250
 11
12743.645750
 21
56778.426000
 0
LINE
 8
001
 62
3
 10
13073.682500
 20
56936.269750
 11
13390.218500
 21
57087.656500
 0
LINE
 8
001
 62
3
 10
12121.702250
 20
57871.252250
 11
12238.645750
 21
57871.252250
 0
LINE
 8
001
 62
3
 10
12149.089750
 20
56911.252250
 11
12238.645750
 21
56911.252250
 0
LINE
 8
001
 62
3
 10
12471.145750
 20
57119.252250
 11
12471.145750
 21
57069.252250
 0
LINE
 8
001
 62
3
 10
12006.145750
 20
57119.252250
 11
12006.145750
 21
57069.252250
 0
LINE
 8
001
 62
3
 10
12006.145750
 20
57069.252250
 11
12471.145750
 21
57069.252250
 0
LINE
 8
001
 62
3
 10
12091.702250
 20
57054.042250
 11
12006.145750
 21
57069.252250
 0
LINE
 8
001
 62
3
 10
12091.702250
 20
57054.042250
 11
12091.702250
 21
57034.042250
 0
LINE
 8
001
 62
3
 10
12091.702250
 20
57054.042250
 11
12238.645750
 21
57054.042250
 0
LINE
 8
001
 62
3
 10
12091.702250
 20
57044.042250
 11
12238.645750
 21
57044.042250
 0
LINE
 8
001
 62
3
 10
12091.702250
 20
57034.042250
 11
12238.645750
 21
57034.042250
 0
LINE
 8
001
 62
3
 10
12120.210000
 20
57034.042250
 11
12149.089750
 21
56911.252250
 0
LINE
 8
001
 62
3
 10
12328.202000
 20
56911.252250
 11
12238.645750
 21
56911.252250
 0
LINE
 8
001
 62
3
 10
12471.145750
 20
57069.252250
 11
12006.145750
 21
57069.252250
 0
LINE
 8
001
 62
3
 10
12385.589250
 20
57054.042250
 11
12471.145750
 21
57069.252250
 0
LINE
 8
001
 62
3
 10
12385.589250
 20
57054.042250
 11
12385.589250
 21
57034.042250
 0
LINE
 8
001
 62
3
 10
12385.589250
 20
57054.042250
 11
12238.645750
 21
57054.042250
 0
LINE
 8
001
 62
3
 10
12385.589250
 20
57044.042250
 11
12238.645750
 21
57044.042250
 0
LINE
 8
001
 62
3
 10
12385.589250
 20
57034.042250
 11
12238.645750
 21
57034.042250
 0
LINE
 8
001
 62
3
 10
12357.081500
 20
57034.042250
 11
12328.202000
 21
56911.252250
 0
LINE
 8
001
 62
3
 10
12006.145750
 20
57423.252250
 11
12471.145750
 21
57423.252250
 0
LINE
 8
001
 62
3
 10
12471.145750
 20
57423.252250
 11
12471.145750
 21
57473.252250
 0
LINE
 8
001
 62
3
 10
12006.145750
 20
57423.252250
 11
12006.145750
 21
57473.252250
 0
LINE
 8
001
 62
3
 10
12006.145750
 20
57473.252250
 11
12471.145750
 21
57473.252250
 0
LINE
 8
001
 62
3
 10
12091.702250
 20
57488.462250
 11
12006.145750
 21
57473.252250
 0
LINE
 8
001
 62
3
 10
12091.702250
 20
57488.462250
 11
12238.645750
 21
57488.462250
 0
LINE
 8
001
 62
3
 10
12471.145750
 20
57473.252250
 11
12006.145750
 21
57473.252250
 0
LINE
 8
001
 62
3
 10
12385.589250
 20
57488.462250
 11
12471.145750
 21
57473.252250
 0
LINE
 8
001
 62
3
 10
12385.589250
 20
57488.462250
 11
12238.645750
 21
57488.462250
 0
LINE
 8
001
 62
3
 10
12091.702250
 20
57498.462250
 11
12091.702250
 21
57488.462250
 0
LINE
 8
001
 62
3
 10
12091.702250
 20
57498.462250
 11
12238.645750
 21
57498.462250
 0
LINE
 8
001
 62
3
 10
12121.702250
 20
57518.462250
 11
12238.645750
 21
57518.462250
 0
ARC
 8
001
 62
3
 10
12019.980750
 20
57580.277500
 40
119.031000
 50
328.713329
 51
363.814076
 0
LINE
 8
001
 62
3
 10
12138.748250
 20
57588.195250
 11
12238.645750
 21
57588.195250
 0
LINE
 8
001
 62
3
 10
12138.748250
 20
57598.195250
 11
12238.645750
 21
57598.195250
 0
LINE
 8
001
 62
3
 10
12138.748250
 20
57598.195250
 11
12138.748250
 21
57588.195250
 0
LINE
 8
001
 62
3
 10
12121.702250
 20
57518.462250
 11
12121.702250
 21
57498.462250
 0
LINE
 8
001
 62
3
 10
12121.702250
 20
57785.507250
 11
12121.702250
 21
57610.883250
 0
LINE
 8
001
 62
3
 10
12138.748250
 20
57598.195250
 11
12121.702250
 21
57610.883250
 0
LINE
 8
001
 62
3
 10
12121.702250
 20
57798.195250
 11
12238.645750
 21
57798.195250
 0
LINE
 8
001
 62
3
 10
12138.748250
 20
57798.195250
 11
12121.702250
 21
57785.507250
 0
LINE
 8
001
 62
3
 10
12121.702250
 20
57851.252250
 11
12238.645750
 21
57851.252250
 0
LINE
 8
001
 62
3
 10
12138.861500
 20
57851.252250
 11
12121.815750
 21
57838.564250
 0
LINE
 8
001
 62
3
 10
12121.702250
 20
57871.252250
 11
12121.702250
 21
57851.252250
 0
LINE
 8
001
 62
3
 10
12121.702250
 20
57785.507250
 11
12121.702250
 21
57748.195250
 0
LINE
 8
001
 62
3
 10
12121.702250
 20
57838.479750
 11
12121.702250
 21
57798.195250
 0
LINE
 8
001
 62
3
 10
12121.702250
 20
57785.507250
 11
12238.645750
 21
57785.507250
 0
LINE
 8
001
 62
3
 10
12355.589250
 20
57871.252250
 11
12238.645750
 21
57871.252250
 0
LINE
 8
001
 62
3
 10
12385.589250
 20
57498.462250
 11
12385.589250
 21
57488.462250
 0
LINE
 8
001
 62
3
 10
12385.589250
 20
57498.462250
 11
12238.645750
 21
57498.462250
 0
LINE
 8
001
 62
3
 10
12355.589250
 20
57518.462250
 11
12238.645750
 21
57518.462250
 0
ARC
 8
001
 62
3
 10
12457.310750
 20
57580.277500
 40
119.031000
 50
176.185924
 51
211.286671
 0
LINE
 8
001
 62
3
 10
12338.543500
 20
57588.195250
 11
12238.645750
 21
57588.195250
 0
LINE
 8
001
 62
3
 10
12338.543500
 20
57598.195250
 11
12238.645750
 21
57598.195250
 0
LINE
 8
001
 62
3
 10
12338.543500
 20
57598.195250
 11
12338.543500
 21
57588.195250
 0
LINE
 8
001
 62
3
 10
12355.589250
 20
57518.462250
 11
12355.589250
 21
57498.462250
 0
LINE
 8
001
 62
3
 10
12355.589250
 20
57785.507250
 11
12355.589250
 21
57610.883250
 0
LINE
 8
001
 62
3
 10
12338.543500
 20
57598.195250
 11
12355.589250
 21
57610.883250
 0
LINE
 8
001
 62
3
 10
12355.589250
 20
57798.195250
 11
12238.645750
 21
57798.195250
 0
LINE
 8
001
 62
3
 10
12338.543500
 20
57798.195250
 11
12355.589250
 21
57785.507250
 0
LINE
 8
001
 62
3
 10
12355.589250
 20
57851.252250
 11
12238.645750
 21
57851.252250
 0
LINE
 8
001
 62
3
 10
12338.430000
 20
57851.252250
 11
12355.476000
 21
57838.564250
 0
LINE
 8
001
 62
3
 10
12355.589250
 20
57871.252250
 11
12355.589250
 21
57851.252250
 0
LINE
 8
001
 62
3
 10
12355.589250
 20
57785.507250
 11
12355.589250
 21
57748.195250
 0
LINE
 8
001
 62
3
 10
12355.589250
 20
57838.479750
 11
12355.589250
 21
57798.195250
 0
LINE
 8
001
 62
3
 10
12355.589250
 20
57785.507250
 11
12238.645750
 21
57785.507250
 0
LINE
 8
001
 6
CENTER
 62
3
 10
11161.123750
 20
58141.252250
 11
11389.233500
 21
58141.252250
 0
LINE
 8
001
 62
3
 10
11193.645750
 20
58150.752250
 11
11353.645750
 21
58150.752250
 0
LINE
 8
001
 62
3
 10
11193.645750
 20
58131.752250
 11
11353.645750
 21
58131.752250
 0
LINE
 8
001
 62
3
 10
11203.645750
 20
58131.752250
 11
11203.645750
 21
58111.752250
 0
LINE
 8
001
 62
3
 10
11193.645750
 20
58150.752250
 11
11193.645750
 21
58131.752250
 0
LINE
 8
001
 62
3
 10
11313.645750
 20
58041.752250
 11
11353.645750
 21
58041.752250
 0
LINE
 8
001
 62
3
 10
11203.645750
 20
58111.752250
 11
11313.645750
 21
58041.752250
 0
LINE
 8
001
 62
3
 10
11253.645750
 20
58131.752250
 11
11353.645750
 21
58081.752250
 0
LINE
 8
001
 6
CENTER
 62
3
 10
11288.645750
 20
58014.125250
 11
11288.645750
 21
58276.827500
 0
LINE
 8
001
 62
3
 10
11203.645750
 20
58150.752250
 11
11203.645750
 21
58170.752250
 0
LINE
 8
001
 62
3
 10
11313.645750
 20
58240.752250
 11
11353.645750
 21
58240.752250
 0
LINE
 8
001
 62
3
 10
11203.645750
 20
58170.752250
 11
11313.645750
 21
58240.752250
 0
LINE
 8
001
 62
3
 10
11253.645750
 20
58150.752250
 11
11353.645750
 21
58200.752250
 0
LINE
 8
001
 6
CENTER
 62
3
 10
11161.123750
 20
56761.252250
 11
11389.233500
 21
56761.252250
 0
LINE
 8
001
 62
3
 10
11193.645750
 20
56751.752250
 11
11353.645750
 21
56751.752250
 0
LINE
 8
001
 62
3
 10
11193.645750
 20
56770.752250
 11
11353.645750
 21
56770.752250
 0
LINE
 8
001
 62
3
 10
11203.645750
 20
56770.752250
 11
11203.645750
 21
56790.752250
 0
LINE
 8
001
 62
3
 10
11193.645750
 20
56751.752250
 11
11193.645750
 21
56770.752250
 0
LINE
 8
001
 62
3
 10
11313.645750
 20
56860.752250
 11
11353.645750
 21
56860.752250
 0
LINE
 8
001
 62
3
 10
11203.645750
 20
56790.752250
 11
11313.645750
 21
56860.752250
 0
LINE
 8
001
 62
3
 10
11253.645750
 20
56770.752250
 11
11353.645750
 21
56820.752250
 0
LINE
 8
001
 6
CENTER
 62
3
 10
11288.645750
 20
56888.379000
 11
11288.645750
 21
56625.676750
 0
LINE
 8
001
 62
3
 10
11203.645750
 20
56751.752250
 11
11203.645750
 21
56731.752250
 0
LINE
 8
001
 62
3
 10
11313.645750
 20
56661.752250
 11
11353.645750
 21
56661.752250
 0
LINE
 8
001
 62
3
 10
11203.645750
 20
56731.752250
 11
11313.645750
 21
56661.752250
 0
LINE
 8
001
 62
3
 10
11253.645750
 20
56751.752250
 11
11353.645750
 21
56701.752250
 0
LINE
 8
001
 62
3
 10
12383.645750
 20
56591.252250
 11
12383.645750
 21
55941.252250
 0
LINE
 8
001
 62
3
 10
12703.645750
 20
56591.252250
 11
12703.645750
 21
55941.252250
 0
LINE
 8
001
 62
3
 10
12383.645750
 20
56591.252250
 11
12703.645750
 21
56591.252250
 0
LINE
 8
001
 62
3
 10
12383.645750
 20
55941.252250
 11
12703.645750
 21
55941.252250
 0
LINE
 8
001
 62
3
 10
12438.645750
 20
55941.252250
 11
12438.645750
 21
55751.252250
 0
LINE
 8
001
 62
3
 10
12438.645750
 20
56601.252250
 11
12438.645750
 21
56591.252250
 0
CIRCLE
 8
001
 62
3
 10
11668.645750
 20
40087.151000
 40
30.500000
 0
ARC
 8
001
 62
3
 10
11668.645750
 20
40087.151000
 40
80.000000
 50
0.000000
 51
117.429843
 0
LINE
 8
001
 62
3
 10
11398.645750
 20
40037.151000
 11
11398.645750
 21
39997.151000
 0
LINE
 8
001
 62
3
 10
11398.645750
 20
40037.151000
 11
11631.792750
 21
40158.157000
 0
LINE
 8
001
 62
3
 10
11748.645750
 20
40087.151000
 11
11748.645750
 21
39997.151000
 0
LINE
 8
001
 6
CENTER
 62
3
 10
14454.811000
 20
41896.507750
 11
34378.790750
 21
54835.291500
 0
CIRCLE
 8
001
 62
3
 10
34069.536750
 20
54634.459500
 40
186.000000
 0
LINE
 8
001
 6
CENTER
 62
3
 10
33925.498750
 20
54856.258750
 11
34212.313500
 21
54414.602750
 0
ARC
 8
001
 62
3
 10
21307.489500
 20
47075.419750
 40
100.000000
 50
146.952234
 51
221.562636
 0
CIRCLE
 8
001
 62
3
 10
21307.489500
 20
47075.419750
 40
28.000000
 0
LINE
 8
001
 62
3
 10
21533.246250
 20
47140.969250
 11
21540.463500
 21
47044.019750
 0
LINE
 8
001
 62
3
 10
21273.862750
 20
47207.106000
 11
21223.668000
 21
47129.953500
 0
LINE
 8
001
 62
3
 10
21293.731750
 20
46940.206000
 11
21232.666500
 21
47009.076000
 0
LINE
 8
001
 62
3
 10
21332.251000
 20
47227.046250
 11
21516.553750
 21
47162.716750
 0
LINE
 8
001
 62
3
 10
21354.428750
 20
46929.131000
 11
21527.175250
 21
47020.040250
 0
ARC
 8
001
 62
3
 10
21315.773750
 20
47179.839250
 40
50.000000
 50
70.758870
 51
146.952234
 0
ARC
 8
001
 62
3
 10
21331.143250
 20
46973.377750
 40
50.000000
 50
221.562636
 51
297.756001
 0
ARC
 8
001
 62
3
 10
21508.315250
 20
47139.113250
 40
25.000000
 50
4.257435
 51
70.758870
 0
ARC
 8
001
 62
3
 10
21515.532500
 20
47042.163750
 40
25.000000
 50
297.756001
 51
364.257435
 0
LINE
 8
001
 62
3
 10
21458.817000
 20
47099.219750
 11
21605.733750
 21
47110.156500
 0
LINE
 8
001
 62
3
 10
21460.673000
 20
47074.288750
 11
21607.589750
 21
47085.225500
 0
ARC
 8
001
 62
3
 10
21459.745000
 20
47086.754250
 40
12.500000
 50
94.257435
 51
274.257435
 0
LINE
 8
001
 62
3
 10
21605.733750
 20
47110.156500
 11
21607.589750
 21
47085.225500
 0
LINE
 8
001
 62
3
 10
21293.705750
 20
47395.279000
 11
21365.507250
 21
47400.624250
 0
LINE
 8
001
 62
3
 10
21376.222000
 20
47391.394250
 11
21389.956000
 21
47206.904750
 0
LINE
 8
001
 62
3
 10
21370.684000
 20
47384.965250
 11
21383.778750
 21
47209.060750
 0
LINE
 8
001
 62
3
 10
21290.904750
 20
47379.026250
 11
21302.151500
 21
47227.947750
 0
LINE
 8
001
 62
3
 10
21284.475750
 20
47384.564250
 11
21296.288250
 21
47225.886250
 0
LINE
 8
001
 62
3
 10
21300.134750
 20
47389.741000
 11
21359.969000
 21
47394.195250
 0
LINE
 8
001
 62
3
 10
21294.987750
 20
47324.178000
 11
21374.767000
 21
47330.117000
 0
LINE
 8
001
 62
3
 10
21295.433250
 20
47318.194750
 11
21375.212500
 21
47324.133750
 0
ARC
 8
001
 62
3
 10
21294.448250
 20
47385.306750
 40
10.000000
 50
94.257435
 51
184.257435
 0
ARC
 8
001
 62
3
 10
21366.249500
 20
47390.651750
 40
10.000000
 50
4.257435
 51
94.257435
 0
ARC
 8
001
 62
3
 10
21300.877000
 20
47379.768750
 40
10.000000
 50
94.257435
 51
184.257435
 0
ARC
 8
001
 62
3
 10
21360.711500
 20
47384.223000
 40
10.000000
 50
4.257435
 51
94.257435
 0
CIRCLE
 8
001
 62
3
 10
26921.954000
 20
47493.379250
 40
29.000000
 0
CIRCLE
 8
001
 62
3
 10
10718.645750
 20
46287.151000
 40
125.000000
 0
CIRCLE
 8
001
 62
3
 10
10955.083500
 20
46169.264500
 40
82.250000
 0
LINE
 8
001
 62
3
 10
21296.288250
 20
47225.886000
 11
10736.485500
 21
46413.891750
 0
LINE
 8
001
 62
3
 10
21318.690750
 20
46924.953250
 11
11035.878500
 21
46184.665750
 0
LINE
 8
001
 62
3
 10
10880.482000
 20
46299.198500
 11
43889.004500
 21
48756.462750
 0
LINE
 8
001
 62
3
 10
44060.344750
 20
48955.732500
 11
21296.772250
 21
47219.386250
 0
LINE
 8
001
 62
3
 10
44260.491250
 20
48748.271000
 11
44260.491250
 21
46950.271250
 0
ARC
 8
001
 62
3
 10
44260.491250
 20
46157.271250
 40
35.000000
 50
180.000000
 51
388.229510
 0
ARC
 8
001
 62
3
 10
44260.491250
 20
46165.271250
 40
95.000000
 50
270.000000
 51
408.094983
 0
ARC
 8
001
 62
3
 10
44260.491250
 20
46135.271250
 40
65.000000
 50
180.000000
 51
270.000000
 0
LINE
 8
001
 62
3
 10
44195.491250
 20
46157.271250
 11
44195.491250
 21
46135.271250
 0
ARC
 8
001
 62
3
 10
44200.491250
 20
46202.271250
 40
10.000000
 50
17.853271
 51
186.301957
 0
LINE
 8
001
 62
3
 10
44225.491250
 20
46157.271250
 11
44209.021500
 21
46208.405250
 0
LINE
 8
001
 62
3
 10
44190.551750
 20
46201.173500
 11
44195.582000
 21
46155.624500
 0
LINE
 8
001
 62
3
 10
44273.375750
 20
46207.266750
 11
44291.328500
 21
46173.826250
 0
ARC
 8
001
 62
3
 10
44537.693750
 20
46349.168000
 40
300.000000
 50
197.853271
 51
208.229510
 0
ARC
 8
001
 62
3
 10
44537.991250
 20
46348.244000
 40
300.000000
 50
186.694529
 51
197.853271
 0
LINE
 8
001
 62
3
 10
44287.533250
 20
46313.271250
 11
44293.214500
 21
46288.254750
 0
ARC
 8
001
 62
3
 10
44390.731500
 20
46310.400500
 40
100.000000
 50
192.794649
 51
228.094983
 0
LINE
 8
001
 62
3
 10
44179.491250
 20
46283.271250
 11
44195.491250
 21
46283.271250
 0
LINE
 8
001
 62
3
 10
44325.491250
 20
46283.271250
 11
44341.491250
 21
46283.271250
 0
LINE
 8
001
 62
3
 10
44160.491250
 20
46313.271250
 11
44360.491250
 21
46313.271250
 0
LINE
 8
001
 62
3
 10
44160.491250
 20
46353.271250
 11
44160.491250
 21
46313.271250
 0
LINE
 8
001
 62
3
 10
44360.491250
 20
46353.271250
 11
44360.491250
 21
46313.271250
 0
LINE
 8
001
 62
3
 10
44160.491250
 20
46353.271250
 11
44360.491250
 21
46353.271250
 0
LINE
 8
001
 62
3
 10
44179.491250
 20
46980.271250
 11
44195.491250
 21
46980.271250
 0
LINE
 8
001
 62
3
 10
44325.491250
 20
46980.271250
 11
44341.491250
 21
46980.271250
 0
LINE
 8
001
 6
CENTER
 62
3
 10
44113.693750
 20
46703.271250
 11
44407.667000
 21
46703.271250
 0
LINE
 8
001
 62
3
 10
44179.491250
 20
46283.271250
 11
44179.491250
 21
46980.271250
 0
LINE
 8
001
 62
3
 10
44341.491250
 20
46283.271250
 11
44341.491250
 21
46980.271250
 0
LINE
 8
001
 62
3
 10
44179.491250
 20
46950.271250
 11
44341.491250
 21
46950.271250
 0
LINE
 8
001
 62
3
 10
44179.491250
 20
46930.271250
 11
44341.491250
 21
46930.271250
 0
LINE
 8
001
 62
3
 10
44195.491250
 20
46950.271250
 11
44195.491250
 21
46980.271250
 0
LINE
 8
001
 62
3
 10
44325.491250
 20
46950.271250
 11
44325.491250
 21
46980.271250
 0
LINE
 8
001
 62
3
 10
44240.491250
 20
46418.271250
 11
44280.491250
 21
46418.271250
 0
LINE
 8
001
 62
3
 10
44240.491250
 20
46418.271250
 11
44240.491250
 21
46353.271250
 0
LINE
 8
001
 62
3
 10
44280.491250
 20
46418.271250
 11
44280.491250
 21
46353.271250
 0
LINE
 8
001
 62
3
 10
44160.491250
 20
46453.271250
 11
44360.491250
 21
46453.271250
 0
LINE
 8
001
 62
3
 10
44160.491250
 20
46473.271250
 11
44360.491250
 21
46473.271250
 0
LINE
 8
001
 62
3
 10
44360.491250
 20
46473.271250
 11
44360.491250
 21
46453.271250
 0
LINE
 8
001
 62
3
 10
44160.491250
 20
46473.271250
 11
44160.491250
 21
46453.271250
 0
LINE
 8
001
 62
3
 10
44195.491250
 20
46283.271250
 11
44195.491250
 21
46453.271250
 0
LINE
 8
001
 62
3
 10
44195.491250
 20
46473.271250
 11
44195.491250
 21
46930.271250
 0
LINE
 8
001
 62
3
 10
44325.491250
 20
46283.271250
 11
44325.491250
 21
46453.271250
 0
LINE
 8
001
 62
3
 10
44325.491250
 20
46473.271250
 11
44325.491250
 21
46930.271250
 0
LINE
 8
001
 62
3
 10
44240.491250
 20
46910.271250
 11
44240.491250
 21
46473.271250
 0
LINE
 8
001
 62
3
 10
44280.491250
 20
46910.271250
 11
44280.491250
 21
46473.271250
 0
LINE
 8
001
 62
3
 10
44240.491250
 20
46910.271250
 11
44280.491250
 21
46910.271250
 0
LINE
 8
001
 6
DASHED
 62
3
 10
43889.004500
 20
48756.462750
 11
44260.491250
 21
46950.271250
 0
LINE
 8
001
 62
3
 10
39218.645750
 20
46876.155750
 11
39218.645750
 21
45600.271250
 0
ARC
 8
001
 62
3
 10
39218.645750
 20
44807.271250
 40
35.000000
 50
180.000000
 51
388.229510
 0
ARC
 8
001
 62
3
 10
39218.645750
 20
44815.271250
 40
95.000000
 50
270.000000
 51
408.094983
 0
ARC
 8
001
 62
3
 10
39218.645750
 20
44785.271250
 40
65.000000
 50
180.000000
 51
270.000000
 0
LINE
 8
001
 62
3
 10
39153.645750
 20
44807.271250
 11
39153.645750
 21
44785.271250
 0
ARC
 8
001
 62
3
 10
39158.645750
 20
44852.271250
 40
10.000000
 50
17.853271
 51
186.301957
 0
LINE
 8
001
 62
3
 10
39183.645750
 20
44807.271250
 11
39167.176000
 21
44858.405250
 0
LINE
 8
001
 62
3
 10
39148.706250
 20
44851.173500
 11
39153.736500
 21
44805.624500
 0
LINE
 8
001
 62
3
 10
39231.530250
 20
44857.266750
 11
39249.483000
 21
44823.826250
 0
ARC
 8
001
 62
3
 10
39495.848250
 20
44999.168000
 40
300.000000
 50
197.853271
 51
208.229510
 0
ARC
 8
001
 62
3
 10
39496.145750
 20
44998.244000
 40
300.000000
 50
186.694529
 51
197.853271
 0
LINE
 8
001
 62
3
 10
39245.687750
 20
44963.271250
 11
39251.368750
 21
44938.254750
 0
ARC
 8
001
 62
3
 10
39348.885750
 20
44960.400500
 40
100.000000
 50
192.794649
 51
228.094983
 0
LINE
 8
001
 62
3
 10
39137.645750
 20
44933.271250
 11
39153.645750
 21
44933.271250
 0
LINE
 8
001
 62
3
 10
39283.645750
 20
44933.271250
 11
39299.645750
 21
44933.271250
 0
LINE
 8
001
 62
3
 10
39118.645750
 20
44963.271250
 11
39318.645750
 21
44963.271250
 0
LINE
 8
001
 62
3
 10
39118.645750
 20
45003.271250
 11
39118.645750
 21
44963.271250
 0
LINE
 8
001
 62
3
 10
39318.645750
 20
45003.271250
 11
39318.645750
 21
44963.271250
 0
LINE
 8
001
 62
3
 10
39118.645750
 20
45003.271250
 11
39318.645750
 21
45003.271250
 0
LINE
 8
001
 62
3
 10
39137.645750
 20
45630.271250
 11
39153.645750
 21
45630.271250
 0
LINE
 8
001
 62
3
 10
39283.645750
 20
45630.271250
 11
39299.645750
 21
45630.271250
 0
LINE
 8
001
 6
CENTER
 62
3
 10
39071.848250
 20
45353.271250
 11
39365.821500
 21
45353.271250
 0
LINE
 8
001
 62
3
 10
39137.645750
 20
44933.271250
 11
39137.645750
 21
45630.271250
 0
LINE
 8
001
 62
3
 10
39299.645750
 20
44933.271250
 11
39299.645750
 21
45630.271250
 0
LINE
 8
001
 62
3
 10
39137.645750
 20
45600.271250
 11
39299.645750
 21
45600.271250
 0
LINE
 8
001
 62
3
 10
39137.645750
 20
45580.271250
 11
39299.645750
 21
45580.271250
 0
LINE
 8
001
 62
3
 10
39153.645750
 20
45600.271250
 11
39153.645750
 21
45630.271250
 0
LINE
 8
001
 62
3
 10
39283.645750
 20
45600.271250
 11
39283.645750
 21
45630.271250
 0
LINE
 8
001
 62
3
 10
39198.645750
 20
45068.271250
 11
39238.645750
 21
45068.271250
 0
LINE
 8
001
 62
3
 10
39198.645750
 20
45068.271250
 11
39198.645750
 21
45003.271250
 0
LINE
 8
001
 62
3
 10
39238.645750
 20
45068.271250
 11
39238.645750
 21
45003.271250
 0
LINE
 8
001
 62
3
 10
39118.645750
 20
45103.271250
 11
39318.645750
 21
45103.271250
 0
LINE
 8
001
 62
3
 10
39118.645750
 20
45123.271250
 11
39318.645750
 21
45123.271250
 0
LINE
 8
001
 62
3
 10
39318.645750
 20
45123.271250
 11
39318.645750
 21
45103.271250
 0
LINE
 8
001
 62
3
 10
39118.645750
 20
45123.271250
 11
39118.645750
 21
45103.271250
 0
LINE
 8
001
 62
3
 10
39153.645750
 20
44933.271250
 11
39153.645750
 21
45103.271250
 0
LINE
 8
001
 62
3
 10
39153.645750
 20
45123.271250
 11
39153.645750
 21
45580.271250
 0
LINE
 8
001
 62
3
 10
39283.645750
 20
44933.271250
 11
39283.645750
 21
45103.271250
 0
LINE
 8
001
 62
3
 10
39283.645750
 20
45123.271250
 11
39283.645750
 21
45580.271250
 0
LINE
 8
001
 62
3
 10
39198.645750
 20
45560.271250
 11
39198.645750
 21
45123.271250
 0
LINE
 8
001
 62
3
 10
39238.645750
 20
45560.271250
 11
39238.645750
 21
45123.271250
 0
LINE
 8
001
 62
3
 10
39198.645750
 20
45560.271250
 11
39238.645750
 21
45560.271250
 0
LINE
 8
001
 6
DASHED
 62
3
 10
38964.930250
 20
46833.851500
 11
39218.645750
 21
45600.271250
 0
LINE
 8
001
 62
3
 10
34255.305250
 20
54643.737000
 11
34255.305250
 21
52800.271250
 0
ARC
 8
001
 62
3
 10
34255.305250
 20
52007.271250
 40
35.000000
 50
180.000000
 51
388.229510
 0
ARC
 8
001
 62
3
 10
34255.305250
 20
52015.271250
 40
95.000000
 50
270.000000
 51
408.094983
 0
ARC
 8
001
 62
3
 10
34255.305250
 20
51985.271250
 40
65.000000
 50
180.000000
 51
270.000000
 0
LINE
 8
001
 62
3
 10
34190.305250
 20
52007.271250
 11
34190.305250
 21
51985.271250
 0
ARC
 8
001
 62
3
 10
34195.305250
 20
52052.271250
 40
10.000000
 50
17.853271
 51
186.301957
 0
LINE
 8
001
 62
3
 10
34220.305250
 20
52007.271250
 11
34203.835250
 21
52058.405250
 0
LINE
 8
001
 62
3
 10
34185.365500
 20
52051.173500
 11
34190.395750
 21
52005.624500
 0
LINE
 8
001
 62
3
 10
34268.189500
 20
52057.266750
 11
34286.142250
 21
52023.826250
 0
ARC
 8
001
 62
3
 10
34532.507500
 20
52199.168000
 40
300.000000
 50
197.853271
 51
208.229510
 0
ARC
 8
001
 62
3
 10
34532.805250
 20
52198.244000
 40
300.000000
 50
186.694529
 51
197.853271
 0
LINE
 8
001
 62
3
 10
34282.347000
 20
52163.271250
 11
34288.028250
 21
52138.254750
 0
ARC
 8
001
 62
3
 10
34385.545250
 20
52160.400500
 40
100.000000
 50
192.794649
 51
228.094983
 0
LINE
 8
001
 62
3
 10
34174.305250
 20
52133.271250
 11
34190.305250
 21
52133.271250
 0
LINE
 8
001
 62
3
 10
34320.305250
 20
52133.271250
 11
34336.305250
 21
52133.271250
 0
LINE
 8
001
 62
3
 10
34155.305250
 20
52163.271250
 11
34355.305250
 21
52163.271250
 0
LINE
 8
001
 62
3
 10
34155.305250
 20
52203.271250
 11
34155.305250
 21
52163.271250
 0
LINE
 8
001
 62
3
 10
34355.305250
 20
52203.271250
 11
34355.305250
 21
52163.271250
 0
LINE
 8
001
 62
3
 10
34155.305250
 20
52203.271250
 11
34355.305250
 21
52203.271250
 0
LINE
 8
001
 62
3
 10
34174.305250
 20
52830.271250
 11
34190.305250
 21
52830.271250
 0
LINE
 8
001
 62
3
 10
34320.305250
 20
52830.271250
 11
34336.305250
 21
52830.271250
 0
LINE
 8
001
 6
CENTER
 62
3
 10
34108.507750
 20
52553.271250
 11
34402.481000
 21
52553.271250
 0
LINE
 8
001
 62
3
 10
34174.305250
 20
52133.271250
 11
34174.305250
 21
52830.271250
 0
LINE
 8
001
 62
3
 10
34336.305250
 20
52133.271250
 11
34336.305250
 21
52830.271250
 0
LINE
 8
001
 62
3
 10
34174.305250
 20
52800.271250
 11
34336.305250
 21
52800.271250
 0
LINE
 8
001
 62
3
 10
34174.305250
 20
52780.271250
 11
34336.305250
 21
52780.271250
 0
LINE
 8
001
 62
3
 10
34190.305250
 20
52800.271250
 11
34190.305250
 21
52830.271250
 0
LINE
 8
001
 62
3
 10
34320.305250
 20
52800.271250
 11
34320.305250
 21
52830.271250
 0
LINE
 8
001
 62
3
 10
34235.305250
 20
52268.271250
 11
34275.305250
 21
52268.271250
 0
LINE
 8
001
 62
3
 10
34235.305250
 20
52268.271250
 11
34235.305250
 21
52203.271250
 0
LINE
 8
001
 62
3
 10
34275.305250
 20
52268.271250
 11
34275.305250
 21
52203.271250
 0
LINE
 8
001
 62
3
 10
34155.305250
 20
52303.271250
 11
34355.305250
 21
52303.271250
 0
LINE
 8
001
 62
3
 10
34155.305250
 20
52323.271250
 11
34355.305250
 21
52323.271250
 0
LINE
 8
001
 62
3
 10
34355.305250
 20
52323.271250
 11
34355.305250
 21
52303.271250
 0
LINE
 8
001
 62
3
 10
34155.305250
 20
52323.271250
 11
34155.305250
 21
52303.271250
 0
LINE
 8
001
 62
3
 10
34190.305250
 20
52133.271250
 11
34190.305250
 21
52303.271250
 0
LINE
 8
001
 62
3
 10
34190.305250
 20
52323.271250
 11
34190.305250
 21
52780.271250
 0
LINE
 8
001
 62
3
 10
34320.305250
 20
52133.271250
 11
34320.305250
 21
52303.271250
 0
LINE
 8
001
 62
3
 10
34320.305250
 20
52323.271250
 11
34320.305250
 21
52780.271250
 0
LINE
 8
001
 62
3
 10
34235.305250
 20
52760.271250
 11
34235.305250
 21
52323.271250
 0
LINE
 8
001
 62
3
 10
34275.305250
 20
52760.271250
 11
34275.305250
 21
52323.271250
 0
LINE
 8
001
 62
3
 10
34235.305250
 20
52760.271250
 11
34275.305250
 21
52760.271250
 0
LINE
 8
001
 6
DASHED
 62
3
 10
33883.866000
 20
54606.231250
 11
34255.305250
 21
52800.271250
 0
LINE
 8
001
 62
3
 10
5000.000000
 20
2500.000000
 11
50000.000000
 21
2500.000000
 0
LINE
 8
001
 62
3
 10
5000.000000
 20
71750.000000
 11
50000.000000
 21
71750.000000
 0
LINE
 8
001
 62
3
 10
5000.000000
 20
71750.000000
 11
5000.000000
 21
2500.000000
 0
LINE
 8
001
 62
3
 10
50000.000000
 20
71750.000000
 11
50000.000000
 21
2500.000000
 0
LINE
 8
001
 62
3
 10
5583.333250
 20
71166.666750
 11
5583.333250
 21
68666.666750
 0
LINE
 8
001
 62
3
 10
49416.666750
 20
71166.666750
 11
49416.666750
 21
68916.666750
 0
LINE
 8
001
 62
3
 10
5583.333250
 20
68666.666750
 11
18133.333250
 21
68666.666750
 0
LINE
 8
001
 62
3
 10
18133.333250
 20
71166.666750
 11
18133.333250
 21
68666.666750
 0
LINE
 8
001
 62
3
 10
37366.666750
 20
71166.666750
 11
37366.666750
 21
68916.666750
 0
LINE
 8
001
 62
3
 10
5583.333250
 20
71166.666750
 11
18133.333250
 21
71166.666750
 0
LINE
 8
001
 62
3
 10
37366.666750
 20
71166.666750
 11
49416.666750
 21
71166.666750
 0
LINE
 8
001
 62
3
 10
37366.666750
 20
68916.666750
 11
49416.666750
 21
68916.666750
 0
TEXT
 8
001
 62
3
 10
5812.002000
 20
66997.729250
 40
1000.000000
 1
éRéOéöü|éìïNòÜâWâuÄ«âNâëâCâ~âôâOâNâîü[âô
 41
1.200000
 7
STANDARD
 0
TEXT
 8
001
 62
3
 10
6120.833500
 20
69166.666750
 40
1500.000000
 1
JCL030
 41
0.933333
 7
STANDARD
 0
TEXT
 8
001
 62
3
 10
36877.955562
 20
69416.666750
 40
1250.000000
 1
üièöüjûkÉýôSìHÅè
 41
1.200000
 7
STANDARD
 0
LINE
 8
001
 10
28832.075500
 20
35831.463500
 11
28832.075500
 21
16736.813250
 0
LINE
 8
001
 10
28832.075500
 20
35173.029500
 11
48585.164500
 21
35173.029500
 0
LINE
 8
001
 10
28832.075500
 20
34514.593250
 11
48585.164500
 21
34514.593250
 0
LINE
 8
001
 10
28832.075500
 20
33856.157000
 11
48585.164500
 21
33856.157000
 0
LINE
 8
001
 10
28832.075500
 20
33197.720750
 11
48585.164500
 21
33197.720750
 0
LINE
 8
001
 10
28832.075500
 20
32539.284250
 11
48585.164500
 21
32539.284250
 0
LINE
 8
001
 10
28832.075500
 20
31880.848000
 11
48585.164500
 21
31880.848000
 0
LINE
 8
001
 10
30474.874000
 20
30563.975500
 11
48585.164500
 21
30563.975500
 0
LINE
 8
001
 10
33770.347750
 20
35831.465750
 11
33770.347750
 21
16736.813250
 0
LINE
 8
001
 10
30474.874000
 20
31880.848000
 11
30474.874000
 21
29905.539250
 0
LINE
 8
001
 10
48585.164500
 20
35831.463500
 11
48585.164500
 21
16736.813250
 0
TEXT
 8
001
 10
30771.211750
 20
35252.247750
 40
500.000000
 1
î`Ä«
 41
1.200000
 7
STANDARD
 0
LINE
 8
001
 10
29653.474750
 20
29905.539250
 11
48585.164500
 21
29905.539250
 0
LINE
 8
001
 10
29653.474750
 20
29247.102750
 11
48585.164500
 21
29247.102750
 0
LINE
 8
001
 10
29653.474750
 20
28588.666500
 11
48585.164500
 21
28588.666500
 0
LINE
 8
001
 10
28832.075500
 20
27930.230250
 11
48585.164500
 21
27930.230250
 0
LINE
 8
001
 10
29653.474750
 20
27271.794000
 11
48585.164500
 21
27271.794000
 0
LINE
 8
001
 10
29653.474750
 20
26613.357750
 11
48585.164500
 21
26613.357750
 0
LINE
 8
001
 10
29653.474750
 20
25954.921500
 11
48585.164500
 21
25954.921500
 0
LINE
 8
001
 10
28832.075500
 20
25296.485000
 11
48585.164500
 21
25296.485000
 0
LINE
 8
001
 10
28832.075500
 20
24638.048750
 11
48585.164500
 21
24638.048750
 0
LINE
 8
001
 10
29653.474750
 20
23979.612500
 11
48585.164500
 21
23979.612500
 0
LINE
 8
001
 10
28832.075500
 20
23321.176250
 11
48585.164500
 21
23321.176250
 0
LINE
 8
001
 10
28832.075500
 20
22004.303500
 11
48585.164500
 21
22004.303500
 0
LINE
 8
001
 10
28832.075500
 20
21345.867250
 11
48585.164500
 21
21345.867250
 0
LINE
 8
001
 10
29653.474750
 20
20687.431000
 11
48585.164500
 21
20687.431000
 0
LINE
 8
001
 10
29653.474750
 20
20028.994750
 11
48585.164500
 21
20028.994750
 0
LINE
 8
001
 10
29653.474750
 20
19370.558500
 11
48585.164500
 21
19370.558500
 0
LINE
 8
001
 10
29653.474750
 20
18712.122250
 11
48585.164500
 21
18712.122250
 0
LINE
 8
001
 10
28832.075500
 20
18053.685750
 11
48585.164500
 21
18053.685750
 0
TEXT
 8
001
 10
30211.211750
 20
34593.811500
 40
500.000000
 1
âWâuÆÀé│
 41
1.200000
 7
STANDARD
 0
TEXT
 8
001
 10
30211.211750
 20
33935.375000
 40
500.000000
 1
Æ¦ÅÒëÎÅd
 41
1.200000
 7
STANDARD
 0
TEXT
 8
001
 10
30211.211750
 20
33276.938750
 40
500.000000
 1
ìýïãö╝îa
 41
1.200000
 7
STANDARD
 0
TEXT
 8
001
 10
30211.211750
 20
32618.502500
 40
500.000000
 1
ÆÞèiëÎÅd
 41
1.200000
 7
STANDARD
 0
TEXT
 8
001
 10
29651.211750
 20
31960.066250
 40
500.000000
 1
ì┼æÕÄ®ùºìéé│
 41
1.200000
 7
STANDARD
 0
TEXT
 8
001
 10
39807.756000
 20
31960.066250
 40
500.000000
 1
30.8m
 41
0.822000
 7
STANDARD
 0
TEXT
 8
001
 10
31592.611000
 20
30643.193500
 40
500.000000
 1
ëÎÅd
 41
1.200000
 7
STANDARD
 0
TEXT
 8
001
 10
31592.611000
 20
29984.757250
 40
500.000000
 1
æ¼ôx
 41
1.200000
 7
STANDARD
 0
TEXT
 8
001
 10
30063.252500
 20
30891.547500
 40
3.292250
 1
,
 41
0.310000
 7
STANDARD
 0
TEXT
 8
001
 10
30063.077083
 20
30893.391000
 40
3.292250
 1
è¬
 41
1.200000
 7
STANDARD
 0
TEXT
 8
001
 10
30063.077083
 20
30890.098750
 40
3.292250
 1
ÅÒ
 41
1.200000
 7
STANDARD
 0
TEXT
 8
001
 10
31181.911250
 20
29326.321000
 40
500.000000
 1
ïNòÜ
 41
1.200000
 7
STANDARD
 0
TEXT
 8
001
 10
31181.911250
 20
28667.884750
 40
500.000000
 1
É¨ë±
 41
1.200000
 7
STANDARD
 0
TEXT
 8
001
 10
31181.911250
 20
28009.448500
 40
500.000000
 1
Å©ì~
 41
1.200000
 7
STANDARD
 0
TEXT
 8
001
 10
31181.911250
 20
27351.012250
 40
500.000000
 1
è¬ÅÒ
 41
1.200000
 7
STANDARD
 0
TEXT
 8
001
 10
31181.911250
 20
26692.575750
 40
500.000000
 1
ïNòÜ
 41
1.200000
 7
STANDARD
 0
TEXT
 8
001
 10
31181.911250
 20
26034.139500
 40
500.000000
 1
É¨ë±
 41
1.200000
 7
STANDARD
 0
TEXT
 8
001
 10
31181.911250
 20
25375.703250
 40
500.000000
 1
Å©ì~
 41
1.200000
 7
STANDARD
 0
TEXT
 8
001
 10
39017.756250
 20
28667.884750
 40
500.000000
 1
0.57r.p.m
 41
0.747778
 7
STANDARD
 0
TEXT
 8
001
 10
37677.756250
 20
28009.448500
 40
500.000000
 1
1.3(1.6)m/min
 41
0.716923
 7
STANDARD
 0
TEXT
 8
001
 10
35607.756250
 20
27351.012250
 40
500.000000
 1
éPéTü^éRüDéVéïéùü~éSü^éPéUéoü@éSéOüôédéc
 41
1.200000
 7
STANDARD
 0
TEXT
 8
001
 10
35327.756250
 20
26692.575750
 40
500.000000
 1
éTüDéTü^éQüDéVéTéïéùü~éSü^éWéoü@éSéOüôédéc
 41
1.200000
 7
STANDARD
 0
TEXT
 8
001
 10
36727.756250
 20
26034.139500
 40
500.000000
 1
éQüDéQéïéùü~éSéoü@âCâôâoü[â^Éºîõ
 41
1.200000
 7
STANDARD
 0
TEXT
 8
001
 10
37287.756250
 20
25375.703250
 40
500.000000
 1
éRüDéOéïéùü~éSéoü@éRéOò¬ÆÞèi
 41
1.200000
 7
STANDARD
 0
TEXT
 8
001
 10
35772.756250
 20
24717.267000
 40
500.000000
 1
200V 50Hz(220V 60Hz)
 41
0.885000
 7
STANDARD
 0
LINE
 8
001
 10
29653.474750
 20
25296.485000
 11
29653.474750
 21
31880.848000
 0
TEXT
 8
001
 10
30771.211750
 20
24717.267000
 40
500.000000
 1
ôdî╣
 41
1.200000
 7
STANDARD
 0
TEXT
 8
001
 10
31181.911250
 20
24058.830750
 40
500.000000
 1
ò¹Ä«
 41
1.200000
 7
STANDARD
 0
TEXT
 8
001
 10
30341.911250
 20
23400.394250
 40
500.000000
 1
âXâgâìü[âN
 41
1.200000
 7
STANDARD
 0
TEXT
 8
001
 10
38687.756250
 20
24058.830750
 40
500.000000
 1
ôdô«â`âFâôâuâìâbâN
 41
1.200000
 7
STANDARD
 0
TEXT
 8
001
 10
40087.756000
 20
23400.394250
 40
500.000000
 1
4.5m
 41
0.827500
 7
STANDARD
 0
LINE
 8
001
 10
29653.474750
 20
18053.685750
 11
29653.474750
 21
21345.867250
 0
LINE
 8
001
 10
29653.474750
 20
23321.176250
 11
29653.474750
 21
24638.048750
 0
TEXT
 8
001
 10
30211.211750
 20
22412.740000
 40
500.000000
 1
ê└æSæòÆu
 41
1.200000
 7
STANDARD
 0
TEXT
 8
001
 10
34147.756250
 20
22741.958000
 40
500.000000
 1
âéü[âüâôâgâèâ~âbâ^ü[ü@ü@ïNòÜÉºî└æòÆuü@ü@è¬ë▀ûhÄ~æòÆu
 41
1.200000
 7
STANDARD
 0
TEXT
 8
001
 10
34187.180000
 20
22083.521750
 40
500.000000
 1
É¨ë±Éºî└æòÆuü@ü@ü@û{æ╠ùÄë║ûhÄ~æòÆu
 41
1.200000
 7
STANDARD
 0
TEXT
 8
001
 10
40367.756000
 20
21425.085500
 40
500.000000
 1
75m
 41
1.000000
 7
STANDARD
 0
TEXT
 8
001
 10
40087.756000
 20
20766.649250
 40
500.000000
 1
7.4t
 41
0.827500
 7
STANDARD
 0
TEXT
 8
001
 10
39527.756000
 20
20108.212750
 40
500.000000
 1
éPüDéWéöü^û{
 41
1.200000
 7
STANDARD
 0
TEXT
 8
001
 10
40087.756000
 20
19449.776500
 40
500.000000
 1
1.6t
 41
0.740000
 7
STANDARD
 0
TEXT
 8
001
 10
40087.756000
 20
18791.340250
 40
500.000000
 1
1.0t
 41
0.690000
 7
STANDARD
 0
TEXT
 8
001
 10
40367.756000
 20
18132.904000
 40
500.000000
 1
22t
 41
1.000000
 7
STANDARD
 0
TEXT
 8
001
 10
30211.211750
 20
21425.085500
 40
500.000000
 1
ì┼æÕùgÆ÷
 41
1.200000
 7
STANDARD
 0
TEXT
 8
001
 10
31181.911250
 20
20766.649250
 40
500.000000
 1
û{æ╠
 41
1.200000
 7
STANDARD
 0
TEXT
 8
001
 10
30901.911250
 20
20108.212750
 40
500.000000
 1
â}âXâg
 41
1.200000
 7
STANDARD
 0
TEXT
 8
001
 10
29818.203750
 20
19454.900500
 40
489.751984
 1
âxü[âXâtâîü[âÇ
 41
1.200000
 7
STANDARD
 0
TEXT
 8
001
 10
29796.016250
 20
18824.990750
 40
432.699005
 1
û{æ╠ì┼æÕò¬èäÅdù╩
 41
1.200000
 7
STANDARD
 0
TEXT
 8
001
 10
30901.911250
 20
18132.904000
 40
500.000000
 1
æìÅdù╩
 41
1.200000
 7
STANDARD
 0
TEXT
 8
001
 10
29076.108583
 20
29935.539250
 40
500.000000
 1
æ¼
 41
1.200000
 7
STANDARD
 0
TEXT
 8
001
 10
29076.108583
 20
29435.539250
 40
500.000000
 1
ôx
 41
1.200000
 7
STANDARD
 0
TEXT
 8
001
 10
29076.108583
 20
26923.357750
 40
500.000000
 1
ôd
 41
1.200000
 7
STANDARD
 0
TEXT
 8
001
 10
29076.108583
 20
26423.357750
 40
500.000000
 1
ô«
 41
1.200000
 7
STANDARD
 0
TEXT
 8
001
 10
29076.108583
 20
25923.357750
 40
500.000000
 1
ï@
 41
1.200000
 7
STANDARD
 0
TEXT
 8
001
 10
29076.108583
 20
24009.612500
 40
500.000000
 1
Å©
 41
1.200000
 7
STANDARD
 0
TEXT
 8
001
 10
29076.108583
 20
23509.612500
 40
500.000000
 1
ì~
 41
1.200000
 7
STANDARD
 0
TEXT
 8
001
 10
29076.108583
 20
19729.776500
 40
500.000000
 1
Åd
 41
1.200000
 7
STANDARD
 0
TEXT
 8
001
 10
29076.108583
 20
19229.776500
 40
500.000000
 1
ù╩
 41
1.200000
 7
STANDARD
 0
TEXT
 8
001
 10
29897.507833
 20
30923.193500
 40
500.000000
 1
è¬
 41
1.200000
 7
STANDARD
 0
TEXT
 8
001
 10
29897.507833
 20
30423.193500
 40
500.000000
 1
ÅÒ
 41
1.200000
 7
STANDARD
 0
TEXT
 8
001
 10
36944.052000
 20
31301.630000
 40
500.000000
 1
Æßæ¼
 41
1.200000
 7
STANDARD
 0
TEXT
 8
001
 10
44351.460250
 20
31301.630000
 40
500.000000
 1
ìéæ¼
 41
1.200000
 7
STANDARD
 0
LINE
 8
001
 10
30474.874000
 20
31222.411750
 11
48585.164500
 21
31222.411750
 0
LINE
 8
001
 10
28832.075500
 20
35831.463500
 11
48585.164500
 21
35831.463500
 0
TEXT
 8
001
 10
34869.484000
 20
34593.811500
 40
500.000000
 1
26.7m
 41
0.862000
 7
STANDARD
 0
TEXT
 8
001
 10
39687.493250
 20
34581.495500
 40
500.000000
 1
28.4m
 41
0.862000
 7
STANDARD
 0
TEXT
 8
001
 10
44746.028250
 20
34593.811500
 40
500.000000
 1
33.6m
 41
0.862000
 7
STANDARD
 0
LINE
 8
001
 10
38708.620000
 20
35173.029500
 11
38708.620000
 21
34514.593250
 0
LINE
 8
001
 10
43646.892250
 20
35173.029500
 11
43646.892250
 21
34514.593250
 0
TEXT
 8
001
 10
34869.484000
 20
33276.938750
 40
500.000000
 1
éOü`éQéOéì
 41
1.200000
 7
STANDARD
 0
TEXT
 8
001
 10
39687.493250
 20
33264.622750
 40
500.000000
 1
éOü`éQéTéì
 41
1.200000
 7
STANDARD
 0
TEXT
 8
001
 10
44746.028250
 20
33276.938750
 40
500.000000
 1
éOü`éRéOéì
 41
1.200000
 7
STANDARD
 0
TEXT
 8
001
 10
34084.484000
 20
32618.502500
 40
500.000000
 1
éQüDéWü`éPüDéWéö
 41
1.200000
 7
STANDARD
 0
TEXT
 8
001
 10
38902.493250
 20
32606.186500
 40
500.000000
 1
éQüDéWü`éPüDéQéö
 41
1.200000
 7
STANDARD
 0
TEXT
 8
001
 10
44016.028250
 20
32618.502500
 40
500.000000
 1
éQüDéWü`éPüDéOéö
 41
1.200000
 7
STANDARD
 0
LINE
 8
001
 10
38708.620000
 20
32539.284250
 11
38708.620000
 21
33856.157000
 0
LINE
 8
001
 10
43646.892250
 20
32539.284250
 11
43646.892250
 21
33856.157000
 0
TEXT
 8
001
 10
40087.756000
 20
30643.193500
 40
500.000000
 1
2.8t
 41
0.827500
 7
STANDARD
 0
LINE
 8
001
 10
41177.756000
 20
30563.975500
 11
41177.756000
 21
29247.102750
 0
LINE
 8
001
 10
41177.756000
 20
31880.848000
 11
41177.756000
 21
31222.411750
 0
TEXT
 8
001
 10
34410.378000
 20
30022.982500
 40
423.549500
 1
4.6(5.5)m/min
 41
0.770769
 7
STANDARD
 0
TEXT
 8
001
 10
34410.378000
 20
29364.546250
 40
423.549500
 1
5.1(6.2)m/min
 41
0.743846
 7
STANDARD
 0
LINE
 8
001
 62
3
 10
20214.350000
 20
42789.060250
 11
20525.380500
 21
42369.822750
 0
LINE
 8
001
 62
3
 10
20525.380500
 20
42369.822750
 11
20496.485750
 21
42891.037750
 0
TEXT
 8
001
 10
40087.756000
 20
33935.375000
 40
500.000000
 1
2.9t
 41
0.827500
 7
STANDARD
 0
LINE
 8
001
 62
3
 10
14158.005250
 20
41022.189750
 11
11643.644500
 21
40180.457250
 0
LINE
 8
001
 62
3
 10
18668.351000
 20
42532.118250
 11
14345.679500
 21
41085.017500
 0
LINE
 8
001
 62
3
 10
14471.069500
 20
40558.463250
 11
11693.647250
 21
39993.844750
 0
LINE
 8
001
 62
3
 10
17912.340035
 20
41258.034867
 11
14673.392000
 21
40599.593250
 0
LINE
 8
001
 62
3
 10
13710.645750
 20
12997.151000
 11
14726.645750
 21
12997.151000
 0
LINE
 8
001
 62
3
 10
11257.249250
 20
23581.333500
 11
11257.249250
 21
19952.671500
 0
LINE
 8
001
 62
3
 10
10241.249250
 20
23639.541750
 11
10241.249250
 21
19961.720500
 0
LINE
 8
001
 62
3
 10
10974.249250
 20
20961.086000
 11
10974.249250
 21
20661.086000
 0
LINE
 8
001
 62
3
 10
10524.249250
 20
20961.086000
 11
10524.249250
 21
20661.086000
 0
ARC
 8
001
 62
3
 10
10749.249250
 20
20961.086000
 40
225.000000
 50
0.000000
 51
180.000000
 0
POLYLINE
 8
001
 62
3
 66
1
 0
VERTEX
 8
001
 62
3
 10
9997.825250
 20
23425.066250
 0
VERTEX
 8
001
 62
3
 10
10112.850250
 20
23529.249250
 0
VERTEX
 8
001
 62
3
 10
10227.080750
 20
23627.889750
 0
VERTEX
 8
001
 62
3
 10
10339.722500
 20
23715.444750
 0
VERTEX
 8
001
 62
3
 10
10449.981000
 20
23786.371500
 0
VERTEX
 8
001
 62
3
 10
10557.062000
 20
23835.127250
 0
VERTEX
 8
001
 62
3
 10
10660.171000
 20
23856.169250
 0
VERTEX
 8
001
 62
3
 10
10758.513750
 20
23843.954750
 0
VERTEX
 8
001
 62
3
 10
10851.295500
 20
23792.941250
 0
VERTEX
 8
001
 62
3
 10
10887.046500
 20
23760.578000
 0
VERTEX
 8
001
 62
3
 10
10922.030500
 20
23723.502000
 0
VERTEX
 8
001
 62
3
 10
10956.516500
 20
23684.225750
 0
VERTEX
 8
001
 62
3
 10
10990.773000
 20
23645.262000
 0
VERTEX
 8
001
 62
3
 10
11025.069000
 20
23609.123750
 0
VERTEX
 8
001
 62
3
 10
11059.673000
 20
23578.323000
 0
VERTEX
 8
001
 62
3
 10
11094.854000
 20
23555.373000
 0
VERTEX
 8
001
 62
3
 10
11130.880250
 20
23542.786000
 0
VERTEX
 8
001
 62
3
 10
11165.534000
 20
23542.042000
 0
VERTEX
 8
001
 62
3
 10
11201.041250
 20
23551.160250
 0
VERTEX
 8
001
 62
3
 10
11237.280250
 20
23568.732000
 0
VERTEX
 8
001
 62
3
 10
11274.128750
 20
23593.348250
 0
VERTEX
 8
001
 62
3
 10
11311.464750
 20
23623.600250
 0
VERTEX
 8
001
 62
3
 10
11349.166750
 20
23658.079000
 0
VERTEX
 8
001
 62
3
 10
11387.112500
 20
23695.375500
 0
VERTEX
 8
001
 62
3
 10
11425.180250
 20
23734.081000
 0
SEQEND
 8
001
 0
POLYLINE
 8
001
 62
3
 66
1
 0
VERTEX
 8
001
 62
3
 10
9953.680500
 20
19722.895750
 0
VERTEX
 8
001
 62
3
 10
10031.225250
 20
19793.789750
 0
VERTEX
 8
001
 62
3
 10
10108.742250
 20
19861.610500
 0
VERTEX
 8
001
 62
3
 10
10186.204000
 20
19923.285000
 0
VERTEX
 8
001
 62
3
 10
10263.582250
 20
19975.740750
 0
VERTEX
 8
001
 62
3
 10
10340.850000
 20
20015.904000
 0
VERTEX
 8
001
 62
3
 10
10417.979000
 20
20040.702250
 0
VERTEX
 8
001
 62
3
 10
10494.941750
 20
20047.062000
 0
VERTEX
 8
001
 62
3
 10
10571.710250
 20
20031.910750
 0
VERTEX
 8
001
 62
3
 10
10624.296250
 20
20008.171000
 0
VERTEX
 8
001
 62
3
 10
10676.709250
 20
19976.159500
 0
VERTEX
 8
001
 62
3
 10
10728.881000
 20
19939.198750
 0
VERTEX
 8
001
 62
3
 10
10780.743250
 20
19900.612000
 0
VERTEX
 8
001
 62
3
 10
10832.227750
 20
19863.722750
 0
VERTEX
 8
001
 62
3
 10
10883.266000
 20
19831.854000
 0
VERTEX
 8
001
 62
3
 10
10933.789750
 20
19808.329000
 0
VERTEX
 8
001
 62
3
 10
10983.730500
 20
19796.470750
 0
VERTEX
 8
001
 62
3
 10
11032.974500
 20
19798.723000
 0
VERTEX
 8
001
 62
3
 10
11081.650500
 20
19814.053250
 0
VERTEX
 8
001
 62
3
 10
11129.839500
 20
19840.594000
 0
VERTEX
 8
001
 62
3
 10
11177.622500
 20
19876.476250
 0
VERTEX
 8
001
 62
3
 10
11225.081250
 20
19919.831750
 0
VERTEX
 8
001
 62
3
 10
11272.296250
 20
19968.792500
 0
VERTEX
 8
001
 62
3
 10
11319.349000
 20
20021.489750
 0
VERTEX
 8
001
 62
3
 10
11366.320750
 20
20076.055500
 0
SEQEND
 8
001
 0
LINE
 8
001
 62
3
 10
13690.645750
 20
9787.151000
 11
13710.645750
 21
9787.151000
 0
LINE
 8
001
 62
3
 10
13690.645750
 20
8957.151000
 11
13710.645750
 21
8957.151000
 0
LINE
 8
001
 62
3
 10
13690.645750
 20
9787.151000
 11
13690.645750
 21
8957.151000
 0
ARC
 8
001
 62
3
 10
10749.249250
 20
20661.086000
 40
225.000000
 50
180.000000
 51
360.000000
 0
ARC
 8
001
 62
3
 10
10749.249250
 20
20961.086000
 40
265.000000
 50
0.000000
 51
180.000000
 0
LINE
 8
001
 62
3
 10
10484.249250
 20
20961.086000
 11
10484.249250
 21
20661.086000
 0
ARC
 8
001
 62
3
 10
10749.249250
 20
20661.086000
 40
265.000000
 50
180.000000
 51
360.000000
 0
LINE
 8
001
 62
3
 10
11014.249250
 20
20961.086000
 11
11014.249250
 21
20661.086000
 0
LINE
 8
001
 10
25649.356500
 20
66972.698750
 11
25649.356500
 21
61347.698750
 0
LINE
 8
001
 10
27524.356500
 20
66972.698750
 11
27524.356500
 21
61347.698750
 0
LINE
 8
001
 10
29399.356500
 20
66972.698750
 11
29399.356500
 21
61347.698750
 0
TEXT
 8
001
 10
23444.495250
 20
60628.948750
 40
625.000000
 1
0
 41
0.800000
 7
STANDARD
 0
TEXT
 8
001
 10
25531.300750
 20
60628.948750
 40
625.000000
 1
5
 41
1.000000
 7
STANDARD
 0
TEXT
 8
001
 10
27218.800750
 20
60628.948750
 40
625.000000
 1
10
 41
0.725000
 7
STANDARD
 0
TEXT
 8
001
 10
29093.800750
 20
60628.948750
 40
625.000000
 1
15
 41
0.825000
 7
STANDARD
 0
TEXT
 8
001
 10
30968.800750
 20
60628.948750
 40
625.000000
 1
20
 41
0.900000
 7
STANDARD
 0
TEXT
 8
001
 10
32843.800750
 20
60628.948750
 40
625.000000
 1
25
 41
1.000000
 7
STANDARD
 0
TEXT
 8
001
 10
34718.800750
 20
60628.948750
 40
625.000000
 1
30
 41
0.900000
 7
STANDARD
 0
TEXT
 8
001
 10
22694.495250
 20
62910.198750
 40
625.000000
 1
1.0
 41
0.586667
 7
STANDARD
 0
TEXT
 8
001
 10
22694.495250
 20
64785.198750
 40
625.000000
 1
2.0
 41
0.703333
 7
STANDARD
 0
TEXT
 8
001
 10
27818.664000
 20
59692.373000
 40
625.000000
 1
ìýïãö╝îaüiéìüj
 41
1.200000
 7
STANDARD
 0
LINE
 8
001
 10
27646.289250
 20
59469.391500
 11
31573.328250
 21
59469.391500
 0
LINE
 8
001
 10
31010.828250
 20
59370.207750
 11
31573.328250
 21
59469.391500
 0
LINE
 8
001
 10
31010.828250
 20
59568.575500
 11
31573.328250
 21
59469.391500
 0
TEXT
 8
001
 10
21214.993917
 20
65893.046500
 40
625.000000
 1
ÆÞ
 41
1.200000
 7
STANDARD
 0
TEXT
 8
001
 10
21214.993917
 20
65268.046500
 40
625.000000
 1
èi
 41
1.200000
 7
STANDARD
 0
TEXT
 8
001
 10
21214.993917
 20
64643.046500
 40
625.000000
 1
ëÎ
 41
1.200000
 7
STANDARD
 0
TEXT
 8
001
 10
21214.993917
 20
64018.046500
 40
625.000000
 1
Åd
 41
1.200000
 7
STANDARD
 0
TEXT
 8
001
 10
21214.993917
 20
63393.046500
 40
625.000000
 1
 
 41
0.400000
 7
STANDARD
 0
TEXT
 8
001
 10
20837.908750
 20
63130.430000
 40
625.000000
 1
(t)
 41
0.766667
 7
STANDARD
 0
LINE
 8
001
 10
20567.834750
 20
66190.859250
 11
20667.018750
 21
66753.359250
 0
LINE
 8
001
 10
20766.202750
 20
66190.859250
 11
20667.018750
 21
66753.359250
 0
LINE
 8
001
 10
20667.018750
 20
63603.359250
 11
20667.018750
 21
66753.359250
 0
LINE
 8
001
 10
23774.356500
 20
66972.698750
 11
35024.356500
 21
66972.698750
 0
LINE
 8
001
 10
23774.356500
 20
61347.698750
 11
35024.356500
 21
61347.698750
 0
TEXT
 8
001
 10
22694.495250
 20
66660.198750
 40
625.000000
 1
3.0
 41
0.703333
 7
STANDARD
 0
LINE
 8
001
 10
23774.356500
 20
63222.698750
 11
35024.356500
 21
63222.698750
 0
LINE
 8
001
 10
23774.356500
 20
65097.698750
 11
35024.356500
 21
65097.698750
 0
LINE
 8
001
 10
23774.356500
 20
63597.698750
 11
35024.356500
 21
63597.698500
 0
LINE
 8
001
 10
26961.856500
 20
66972.698750
 11
26961.856500
 21
61347.698750
 0
LINE
 8
001
 10
23774.356500
 20
64722.698750
 11
35024.356500
 21
64722.698750
 0
LINE
 8
001
 10
27899.356500
 20
66972.698750
 11
27899.356500
 21
61347.698750
 0
LINE
 8
001
 10
35024.356500
 20
63222.698750
 11
35024.356500
 21
61347.698750
 0
LINE
 8
001
 62
3
 10
33149.356500
 20
63597.698500
 11
33089.356500
 21
63616.089750
 0
LINE
 8
001
 62
3
 10
33089.356500
 20
63616.089750
 11
32928.106500
 21
63665.605250
 0
LINE
 8
001
 62
3
 10
32928.106500
 20
63665.605250
 11
32766.856500
 21
63715.429250
 0
LINE
 8
001
 62
3
 10
32766.856500
 20
63715.429250
 11
32605.606500
 21
63765.788750
 0
LINE
 8
001
 62
3
 10
32605.606500
 20
63765.788750
 11
32444.356500
 21
63816.914000
 0
LINE
 8
001
 62
3
 10
32444.356500
 20
63816.914000
 11
32283.106500
 21
63869.041500
 0
LINE
 8
001
 62
3
 10
32283.106500
 20
63869.041500
 11
32121.856500
 21
63922.414000
 0
LINE
 8
001
 62
3
 10
32121.856500
 20
63922.414000
 11
31960.606500
 21
63977.283500
 0
LINE
 8
001
 62
3
 10
31960.606500
 20
63977.283500
 11
31799.356500
 21
64033.913250
 0
LINE
 8
001
 62
3
 10
31799.356500
 20
64033.913250
 11
31638.106500
 21
64092.579250
 0
LINE
 8
001
 62
3
 10
31638.106500
 20
64092.579250
 11
31476.856500
 21
64153.574250
 0
LINE
 8
001
 62
3
 10
31476.856500
 20
64153.574250
 11
31315.606500
 21
64217.209250
 0
LINE
 8
001
 62
3
 10
31315.606500
 20
64217.209250
 11
31154.356500
 21
64283.817750
 0
LINE
 8
001
 62
3
 10
31154.356500
 20
64283.817750
 11
30993.106500
 21
64353.760500
 0
LINE
 8
001
 62
3
 10
30993.106500
 20
64353.760500
 11
30831.856500
 21
64427.428250
 0
LINE
 8
001
 62
3
 10
30831.856500
 20
64427.428250
 11
30670.606500
 21
64505.249500
 0
LINE
 8
001
 62
3
 10
30670.606500
 20
64505.249500
 11
30509.356500
 21
64587.696500
 0
LINE
 8
001
 62
3
 10
30509.356500
 20
64587.696500
 11
30348.106500
 21
64675.294000
 0
LINE
 8
001
 62
3
 10
30348.106500
 20
64675.294000
 11
30186.856500
 21
64768.587250
 0
LINE
 8
001
 62
3
 10
30186.856500
 20
64768.587250
 11
30025.606500
 21
64867.733000
 0
LINE
 8
001
 62
3
 10
30025.606500
 20
64867.733000
 11
29864.356500
 21
64972.607000
 0
LINE
 8
001
 62
3
 10
29864.356500
 20
64972.607000
 11
29703.106500
 21
65083.040500
 0
LINE
 8
001
 62
3
 10
29703.106500
 20
65083.040500
 11
29541.856500
 21
65198.820500
 0
LINE
 8
001
 62
3
 10
29541.856500
 20
65198.820500
 11
29380.606500
 21
65319.687750
 0
LINE
 8
001
 62
3
 10
29380.606500
 20
65319.687750
 11
29219.356500
 21
65445.334750
 0
LINE
 8
001
 62
3
 10
29240.767000
 20
65428.651500
 11
29058.106500
 21
65575.405000
 0
LINE
 8
001
 62
3
 10
29058.106500
 20
65575.405000
 11
28896.856500
 21
65709.493250
 0
LINE
 8
001
 62
3
 10
28896.856500
 20
65709.493250
 11
28735.606500
 21
65847.147500
 0
LINE
 8
001
 62
3
 10
28735.606500
 20
65847.147500
 11
28574.356500
 21
65987.871000
 0
LINE
 8
001
 62
3
 10
28574.356500
 20
65987.871000
 11
28413.106500
 21
66131.127500
 0
LINE
 8
001
 62
3
 10
28413.106500
 20
66131.127500
 11
28251.856500
 21
66276.346000
 0
LINE
 8
001
 62
3
 10
28251.856500
 20
66276.346000
 11
28090.606500
 21
66422.928500
 0
LINE
 8
001
 62
3
 10
28090.606500
 20
66422.928500
 11
27899.356500
 21
66597.698750
 0
LINE
 8
001
 10
29024.356500
 20
66972.698750
 11
29024.356500
 21
61347.698750
 0
LINE
 8
001
 62
3
 10
29024.356500
 20
66597.698750
 11
29058.106500
 21
66562.756250
 0
LINE
 8
001
 62
3
 10
29058.106500
 20
66562.756250
 11
29219.356500
 21
66396.175500
 0
LINE
 8
001
 62
3
 10
29219.356500
 20
66396.175500
 11
29380.606500
 21
66231.129500
 0
LINE
 8
001
 62
3
 10
29380.606500
 20
66231.129500
 11
29541.856500
 21
66068.839250
 0
LINE
 8
001
 62
3
 10
29541.856500
 20
66068.839250
 11
29703.106500
 21
65910.446000
 0
LINE
 8
001
 62
3
 10
29703.106500
 20
65910.446000
 11
29864.356500
 21
65756.982500
 0
LINE
 8
001
 62
3
 10
29864.356500
 20
65756.982500
 11
30025.606500
 21
65609.353500
 0
LINE
 8
001
 62
3
 10
30077.983500
 20
65556.266750
 11
30186.856500
 21
65468.324500
 0
LINE
 8
001
 62
3
 10
30186.856500
 20
65468.324500
 11
30348.106500
 21
65334.517500
 0
LINE
 8
001
 62
3
 10
30348.106500
 20
65334.517500
 11
30509.356500
 21
65208.414500
 0
LINE
 8
001
 62
3
 10
30568.448500
 20
65160.966500
 11
30670.606500
 21
65090.367000
 0
LINE
 8
001
 62
3
 10
30670.606500
 20
65090.367000
 11
30831.856500
 21
64980.606250
 0
LINE
 8
001
 62
3
 10
30831.856500
 20
64980.606250
 11
30993.106500
 21
64879.259500
 0
LINE
 8
001
 62
3
 10
30993.106500
 20
64879.259500
 11
31154.356500
 21
64786.364500
 0
LINE
 8
001
 62
3
 10
30509.356500
 20
65208.414500
 11
30568.448500
 21
65160.966500
 0
LINE
 8
001
 62
3
 10
30025.606500
 20
65609.353500
 11
30077.983500
 21
65556.266750
 0
LINE
 8
001
 10
29024.356500
 20
66597.698750
 11
35024.356500
 21
66597.698750
 0
LINE
 8
001
 10
31274.356500
 20
66972.698750
 11
31274.356500
 21
64722.698750
 0
LINE
 8
001
 10
33149.356500
 20
66972.698750
 11
33149.356500
 21
63597.698500
 0
TEXT
 8
001
 10
28718.800750
 20
67035.198750
 40
625.000000
 1
14
 41
0.825000
 7
STANDARD
 0
TEXT
 8
001
 10
27593.800750
 20
67035.198750
 40
625.000000
 1
11
 41
0.650000
 7
STANDARD
 0
TEXT
 8
001
 10
26468.800750
 20
67035.198750
 40
625.000000
 1
8.5
 41
0.770000
 7
STANDARD
 0
TEXT
 8
001
 10
35256.995250
 20
63285.198750
 40
625.000000
 1
1.2
 41
0.653333
 7
STANDARD
 0
TEXT
 8
001
 10
35256.995250
 20
64410.198750
 40
625.000000
 1
1.8
 41
0.653333
 7
STANDARD
 0
TEXT
 8
001
 10
35256.995250
 20
66285.198750
 40
625.000000
 1
2.8
 41
0.770000
 7
STANDARD
 0
LINE
 8
001
 10
35024.356500
 20
66972.698750
 11
35024.356500
 21
63222.698750
 0
LINE
 8
001
 62
3
 10
31154.356500
 20
64786.364500
 11
31274.356500
 21
64722.698750
 0
LINE
 8
001
 10
23774.356500
 20
66972.698750
 11
23774.356500
 21
66597.698750
 0
LINE
 8
001
 10
23774.356500
 20
66597.698750
 11
23774.356500
 21
61347.698750
 0
LINE
 8
001
 62
3
 10
26961.856500
 20
66597.698750
 11
27123.106500
 21
66458.183250
 0
LINE
 8
001
 62
3
 10
27123.106500
 20
66458.183250
 11
27284.356500
 21
66319.129250
 0
LINE
 8
001
 62
3
 10
27284.356500
 20
66319.129250
 11
27445.606500
 21
66180.992250
 0
LINE
 8
001
 62
3
 10
27445.606500
 20
66180.992250
 11
27606.856500
 21
66044.217000
 0
LINE
 8
001
 62
3
 10
27606.856500
 20
66044.217000
 11
27768.106500
 21
65909.232750
 0
LINE
 8
001
 62
3
 10
27768.106500
 20
65909.232750
 11
27929.356500
 21
65776.448000
 0
LINE
 8
001
 62
3
 10
27929.356500
 20
65776.448000
 11
28090.606500
 21
65646.246750
 0
LINE
 8
001
 62
3
 10
28090.606500
 20
65646.246750
 11
28251.856500
 21
65518.986000
 0
LINE
 8
001
 62
3
 10
28251.856500
 20
65518.986000
 11
28413.106500
 21
65394.993000
 0
LINE
 8
001
 62
3
 10
28413.106500
 20
65394.993000
 11
28574.356500
 21
65274.563000
 0
LINE
 8
001
 62
3
 10
28574.356500
 20
65274.563000
 11
28735.606500
 21
65157.959250
 0
LINE
 8
001
 62
3
 10
28735.606500
 20
65157.959250
 11
28896.856500
 21
65045.412750
 0
LINE
 8
001
 62
3
 10
28896.856500
 20
65045.412750
 11
29058.106500
 21
64937.121750
 0
LINE
 8
001
 62
3
 10
29058.106500
 20
64937.121750
 11
29219.356500
 21
64833.253500
 0
LINE
 8
001
 62
3
 10
29219.356500
 20
64833.253500
 11
29380.606500
 21
64733.945000
 0
LINE
 8
001
 62
3
 10
29380.606500
 20
64733.945000
 11
29399.356500
 21
64722.698750
 0
LINE
 8
001
 62
3
 10
29399.356500
 20
64722.698750
 11
29541.856500
 21
64639.265500
 0
LINE
 8
001
 62
3
 10
29558.658000
 20
64629.428000
 11
29703.106500
 21
64549.045750
 0
LINE
 8
001
 62
3
 10
29703.106500
 20
64549.045750
 11
29864.356500
 21
64463.057500
 0
LINE
 8
001
 62
3
 10
29864.356500
 20
64463.057500
 11
30025.606500
 21
64381.095000
 0
LINE
 8
001
 62
3
 10
30025.606500
 20
64381.095000
 11
30186.856500
 21
64302.973750
 0
LINE
 8
001
 62
3
 10
30186.856500
 20
64302.973750
 11
30348.106500
 21
64228.526750
 0
LINE
 8
001
 62
3
 10
30348.106500
 20
64228.526750
 11
30509.356500
 21
64157.602500
 0
LINE
 8
001
 62
3
 10
30509.356500
 20
64157.602500
 11
30670.606500
 21
64090.064250
 0
LINE
 8
001
 62
3
 10
30670.606500
 20
64090.064250
 11
30831.856500
 21
64025.787250
 0
LINE
 8
001
 62
3
 10
30831.856500
 20
64025.787250
 11
30993.106500
 21
63964.657750
 0
LINE
 8
001
 62
3
 10
31028.622250
 20
63951.193750
 11
31154.356500
 21
63906.572500
 0
LINE
 8
001
 62
3
 10
31154.356500
 20
63906.572500
 11
31315.606500
 21
63851.436500
 0
LINE
 8
001
 62
3
 10
31315.606500
 20
63851.436500
 11
31476.856500
 21
63799.164250
 0
LINE
 8
001
 62
3
 10
31476.856500
 20
63799.164250
 11
31638.106500
 21
63749.676750
 0
LINE
 8
001
 62
3
 10
31638.106500
 20
63749.676750
 11
31799.356500
 21
63702.902000
 0
LINE
 8
001
 62
3
 10
31799.356500
 20
63702.902000
 11
31960.606500
 21
63658.774750
 0
LINE
 8
001
 62
3
 10
31960.606500
 20
63658.774750
 11
32121.856500
 21
63617.235500
 0
LINE
 8
001
 62
3
 10
32121.856500
 20
63617.235500
 11
32283.106500
 21
63578.229750
 0
LINE
 8
001
 62
3
 10
32283.106500
 20
63578.229750
 11
32444.356500
 21
63541.708750
 0
LINE
 8
001
 62
3
 10
32444.356500
 20
63541.708750
 11
32605.606500
 21
63507.627750
 0
LINE
 8
001
 62
3
 10
32605.606500
 20
63507.627750
 11
32766.856500
 21
63475.947250
 0
LINE
 8
001
 62
3
 10
32766.856500
 20
63475.947250
 11
32928.106500
 21
63446.631500
 0
LINE
 8
001
 62
3
 10
32928.106500
 20
63446.631500
 11
33089.356500
 21
63419.648750
 0
LINE
 8
001
 62
3
 10
33089.356500
 20
63419.648750
 11
33149.356500
 21
63410.198750
 0
LINE
 8
001
 62
3
 10
33149.356500
 20
63410.198750
 11
33250.606500
 21
63394.964250
 0
LINE
 8
001
 62
3
 10
33250.606500
 20
63394.964250
 11
33411.856500
 21
63372.446750
 0
LINE
 8
001
 62
3
 10
33411.856500
 20
63372.446750
 11
33573.106500
 21
63351.896250
 0
LINE
 8
001
 62
3
 10
33573.106500
 20
63351.896250
 11
33734.356500
 21
63333.111750
 0
LINE
 8
001
 62
3
 10
33734.356500
 20
63333.111750
 11
33895.606500
 21
63315.894000
 0
LINE
 8
001
 62
3
 10
33895.606500
 20
63315.894000
 11
34056.856500
 21
63300.045250
 0
LINE
 8
001
 62
3
 10
34056.856500
 20
63300.045250
 11
34218.106500
 21
63285.368000
 0
LINE
 8
001
 62
3
 10
34218.106500
 20
63285.368000
 11
34379.356500
 21
63271.665750
 0
LINE
 8
001
 62
3
 10
34379.356500
 20
63271.665750
 11
34540.606500
 21
63258.743000
 0
LINE
 8
001
 62
3
 10
34540.606500
 20
63258.743000
 11
34701.856500
 21
63246.404000
 0
LINE
 8
001
 62
3
 10
34701.856500
 20
63246.404000
 11
34863.106500
 21
63234.454000
 0
LINE
 8
001
 62
3
 10
34863.106500
 20
63234.454000
 11
35024.356500
 21
63222.698750
 0
LINE
 8
001
 10
30025.606500
 20
65609.353500
 11
28833.820250
 21
69055.562500
 0
LINE
 8
001
 10
29720.427500
 20
66032.869500
 11
30025.606500
 21
65609.353500
 0
LINE
 8
001
 10
30025.606500
 20
65609.353500
 11
30003.952250
 21
66130.919500
 0
LINE
 8
001
 10
28833.820250
 20
69055.562500
 11
25581.042500
 21
69055.562500
 0
TEXT
 8
001
 10
25581.042500
 20
69180.562500
 40
625.000000
 1
éQéRüDéRéìâWâu
 41
1.200000
 7
STANDARD
 0
LINE
 8
001
 10
31638.106500
 20
64092.579250
 11
32325.875250
 21
69034.270000
 0
LINE
 8
001
 10
31558.462500
 20
64608.483250
 11
31638.106500
 21
64092.579250
 0
LINE
 8
001
 10
31638.106500
 20
64092.579250
 11
31855.598500
 21
64567.128750
 0
LINE
 8
001
 10
32325.875250
 20
69034.270000
 11
29073.097500
 21
69034.270000
 0
TEXT
 8
001
 10
29073.097500
 20
69159.270000
 40
625.000000
 1
éQéWüDéSéìâWâu
 41
1.200000
 7
STANDARD
 0
LINE
 8
001
 10
33895.606500
 20
63384.812000
 11
35945.688000
 21
69012.977250
 0
LINE
 8
001
 10
33925.793250
 20
63905.953750
 11
33895.606500
 21
63384.812000
 0
LINE
 8
001
 10
33895.606500
 20
63384.812000
 11
34207.675250
 21
63803.277000
 0
LINE
 8
001
 10
35945.688000
 20
69012.977250
 11
32645.270500
 21
69012.977250
 0
TEXT
 8
001
 10
32317.910250
 20
69137.977250
 40
625.000000
 1
ü@éRéRüDéUéìâWâu
 41
1.200000
 7
STANDARD
 0
LINE
 8
001
 10
28832.075500
 20
16736.813250
 11
48585.164500
 21
16736.813250
 0
TEXT
 8
001
 10
30771.211750
 20
17145.249500
 40
500.000000
 1
ïLÄû
 41
1.200000
 7
STANDARD
 0
TEXT
 8
001
 10
36612.756250
 20
17474.467750
 40
500.000000
 1
üiü@üjôÓé═éUéOégéÜÄ×é╠æ¼ôxé­ÄªéÀüB
 41
1.200000
 7
STANDARD
 0
TEXT
 8
001
 10
37567.756250
 20
16816.031500
 40
500.000000
 1
ÆAéÁâCâôâoü[â^Éºîõé­Å£é¡üB
 41
1.200000
 7
STANDARD
 0
LINE
 8
001
 62
3
 10
36954.118250
 20
47364.369750
 11
42975.780000
 21
48579.587750
 0
LINE
 8
001
 62
3
 10
37192.561000
 20
46424.266000
 11
43027.604000
 21
48386.182000
 0
LINE
 8
001
 62
3
 10
36937.877000
 20
47427.402750
 11
44152.076750
 21
48890.271000
 0
LINE
 8
001
 62
3
 10
37210.218750
 20
46360.781250
 11
44201.682250
 21
48705.140750
 0
LINE
 8
001
 62
3
 10
18668.351000
 20
57951.252250
 11
18668.351000
 21
56951.252250
 0
LINE
 8
001
 62
3
 10
18717.613000
 20
57951.252250
 11
18717.613000
 21
56951.252250
 0
LINE
 8
001
 62
3
 10
17026.854000
 20
41914.048750
 11
17588.741500
 21
41258.580500
 0
LINE
 8
001
 62
3
 10
17648.465000
 20
41270.721500
 11
17806.266250
 21
42228.906250
 0
LINE
 8
001
 62
3
 10
18782.613000
 20
57886.252250
 11
18782.613000
 21
57016.252250
 0
LINE
 8
001
 62
3
 10
18603.351000
 20
57886.252250
 11
18603.351000
 21
57016.252250
 0
LINE
 8
001
 62
3
 10
16242.015500
 20
57016.252250
 11
16574.355500
 21
57886.252250
 0
LINE
 8
001
 62
3
 10
16624.016250
 20
57886.252250
 11
16956.366250
 21
57016.252250
 0
LINE
 8
001
 62
3
 10
17008.009500
 20
57016.252250
 11
17366.884500
 21
57886.252250
 0
LINE
 8
001
 62
3
 10
17420.514000
 20
57886.252250
 11
17779.449250
 21
57016.252250
 0
LINE
 8
001
 62
3
 10
17833.078750
 20
57016.252250
 11
18191.953750
 21
57886.252250
 0
LINE
 8
001
 62
3
 10
18245.578750
 20
57886.252250
 11
18604.453750
 21
57016.252250
 0
LINE
 8
001
 62
3
 10
18798.412500
 20
57016.252250
 11
19149.892500
 21
57886.252250
 0
LINE
 8
001
 62
3
 10
19202.412500
 20
57886.252250
 11
19553.892500
 21
57016.252250
 0
LINE
 8
001
 62
3
 10
19606.412500
 20
57016.252250
 11
19957.892500
 21
57886.252250
 0
LINE
 8
001
 62
3
 10
20010.380750
 20
57886.252250
 11
20361.438000
 21
57016.252250
 0
LINE
 8
001
 62
3
 10
20413.926500
 20
57016.252250
 11
20765.406500
 21
57886.252250
 0
LINE
 8
001
 62
3
 10
20817.894750
 20
57886.252250
 11
21168.952000
 21
57016.252250
 0
LINE
 8
001
 62
3
 10
21221.440500
 20
57016.252250
 11
21572.920500
 21
57886.252250
 0
LINE
 8
001
 62
3
 10
21625.408750
 20
57886.252250
 11
21976.466000
 21
57016.252250
 0
LINE
 8
001
 62
3
 10
22028.954250
 20
57016.252250
 11
22380.434250
 21
57886.252250
 0
LINE
 8
001
 62
3
 10
22432.922750
 20
57886.252250
 11
22783.980000
 21
57016.252250
 0
LINE
 8
001
 62
3
 10
22836.468250
 20
57016.252250
 11
23187.948250
 21
57886.252250
 0
LINE
 8
001
 62
3
 10
23240.436750
 20
57886.252250
 11
23591.494000
 21
57016.252250
 0
LINE
 8
001
 62
3
 10
23643.982250
 20
57016.252250
 11
23995.462250
 21
57886.252250
 0
LINE
 8
001
 62
3
 10
24047.950750
 20
57886.252250
 11
24399.008000
 21
57016.252250
 0
LINE
 8
001
 62
3
 10
24451.496250
 20
57016.252250
 11
24802.976250
 21
57886.252250
 0
LINE
 8
001
 62
3
 10
24855.496250
 20
57886.252250
 11
25206.976250
 21
57016.252250
 0
LINE
 8
001
 62
3
 10
25287.840500
 20
57951.252250
 11
25287.840500
 21
56951.252250
 0
LINE
 8
001
 62
3
 10
25324.545750
 20
57951.252250
 11
25324.545750
 21
56951.252250
 0
LINE
 8
001
 62
3
 10
25389.545750
 20
57886.252250
 11
25389.545750
 21
57016.252250
 0
LINE
 8
001
 62
3
 10
25222.840500
 20
57886.252250
 11
25222.840500
 21
57016.252250
 0
LINE
 8
001
 62
3
 10
31813.974000
 20
57016.252250
 11
31462.494000
 21
57886.252250
 0
LINE
 8
001
 62
3
 10
31409.974000
 20
57886.252250
 11
31058.494000
 21
57016.252250
 0
LINE
 8
001
 62
3
 10
31005.974000
 20
57016.252250
 11
30654.494000
 21
57886.252250
 0
LINE
 8
001
 62
3
 10
30602.005500
 20
57886.252250
 11
30250.948250
 21
57016.252250
 0
LINE
 8
001
 62
3
 10
30198.460000
 20
57016.252250
 11
29846.980000
 21
57886.252250
 0
LINE
 8
001
 62
3
 10
29794.491500
 20
57886.252250
 11
29443.434250
 21
57016.252250
 0
LINE
 8
001
 62
3
 10
29390.946000
 20
57016.252250
 11
29039.466000
 21
57886.252250
 0
LINE
 8
001
 62
3
 10
28986.977500
 20
57886.252250
 11
28635.920500
 21
57016.252250
 0
LINE
 8
001
 62
3
 10
28583.432000
 20
57016.252250
 11
28231.952000
 21
57886.252250
 0
LINE
 8
001
 62
3
 10
28179.463500
 20
57886.252250
 11
27828.406500
 21
57016.252250
 0
LINE
 8
001
 62
3
 10
27775.918000
 20
57016.252250
 11
27424.438000
 21
57886.252250
 0
LINE
 8
001
 62
3
 10
27371.949500
 20
57886.252250
 11
27020.892500
 21
57016.252250
 0
LINE
 8
001
 62
3
 10
26968.404000
 20
57016.252250
 11
26616.924000
 21
57886.252250
 0
LINE
 8
001
 62
3
 10
26564.435500
 20
57886.252250
 11
26213.378500
 21
57016.252250
 0
LINE
 8
001
 62
3
 10
26160.890000
 20
57016.252250
 11
25809.410000
 21
57886.252250
 0
LINE
 8
001
 62
3
 10
25756.890000
 20
57886.252250
 11
25405.410000
 21
57016.252250
 0
LINE
 8
001
 62
3
 10
36888.609750
 20
57951.252250
 11
36888.609750
 21
56951.252250
 0
LINE
 8
001
 62
3
 10
36937.877000
 20
57951.252250
 11
36937.877000
 21
56951.252250
 0
LINE
 8
001
 62
3
 10
31894.773250
 20
57951.252250
 11
31894.773250
 21
56951.252250
 0
LINE
 8
001
 62
3
 10
31931.478500
 20
57951.252250
 11
31931.478500
 21
56951.252250
 0
LINE
 8
001
 62
3
 10
31996.478500
 20
57886.252250
 11
31996.478500
 21
57016.252250
 0
LINE
 8
001
 62
3
 10
31829.773250
 20
57886.252250
 11
31829.773250
 21
57016.252250
 0
LINE
 8
001
 62
3
 10
36823.609750
 20
57886.252250
 11
36823.609750
 21
57016.252250
 0
LINE
 8
001
 62
3
 10
37002.877000
 20
57886.252250
 11
37002.877000
 21
57016.252250
 0
LINE
 8
001
 62
3
 10
32031.628750
 20
57016.252250
 11
32383.108750
 21
57886.252250
 0
LINE
 8
001
 62
3
 10
32435.628750
 20
57886.252250
 11
32787.108750
 21
57016.252250
 0
LINE
 8
001
 62
3
 10
32839.628750
 20
57016.252250
 11
33191.108750
 21
57886.252250
 0
LINE
 8
001
 62
3
 10
33243.597000
 20
57886.252250
 11
33594.654250
 21
57016.252250
 0
LINE
 8
001
 62
3
 10
33647.142750
 20
57016.252250
 11
33998.622750
 21
57886.252250
 0
LINE
 8
001
 62
3
 10
34051.111000
 20
57886.252250
 11
34402.168250
 21
57016.252250
 0
LINE
 8
001
 62
3
 10
34454.656750
 20
57016.252250
 11
34806.136750
 21
57886.252250
 0
LINE
 8
001
 62
3
 10
34858.625000
 20
57886.252250
 11
35209.682250
 21
57016.252250
 0
LINE
 8
001
 62
3
 10
35262.170750
 20
57016.252250
 11
35613.650750
 21
57886.252250
 0
LINE
 8
001
 62
3
 10
35666.151250
 20
57886.252250
 11
36017.370250
 21
57016.252250
 0
LINE
 8
001
 62
3
 10
36069.870750
 20
57016.252250
 11
36421.350750
 21
57886.252250
 0
LINE
 8
001
 62
3
 10
36473.870750
 20
57886.252250
 11
36825.350750
 21
57016.252250
 0
LINE
 8
001
 62
3
 10
37037.561500
 20
57016.252250
 11
37407.746500
 21
57886.252250
 0
LINE
 8
001
 62
3
 10
37463.061500
 20
57886.252250
 11
37833.246500
 21
57016.252250
 0
LINE
 8
001
 62
3
 10
37888.561500
 20
57016.252250
 11
38258.746500
 21
57886.252250
 0
LINE
 8
001
 62
3
 10
38314.070250
 20
57886.252250
 11
38684.371250
 21
57016.252250
 0
LINE
 8
001
 62
3
 10
38739.694750
 20
57016.252250
 11
39109.879750
 21
57886.252250
 0
LINE
 8
001
 62
3
 10
39165.203500
 20
57886.252250
 11
39535.504500
 21
57016.252250
 0
LINE
 8
001
 62
3
 10
39590.828000
 20
57016.252250
 11
39961.013000
 21
57886.252250
 0
LINE
 8
001
 62
3
 10
40016.336750
 20
57886.252250
 11
40386.637750
 21
57016.252250
 0
LINE
 8
001
 62
3
 10
40441.961500
 20
57016.252250
 11
40812.146500
 21
57886.252250
 0
LINE
 8
001
 62
3
 10
40867.470000
 20
57886.252250
 11
41237.771000
 21
57016.252250
 0
LINE
 8
001
 62
3
 10
41293.094750
 20
57016.252250
 11
41663.279750
 21
57886.252250
 0
LINE
 8
001
 62
3
 10
41718.603250
 20
57886.252250
 11
42088.904250
 21
57016.252250
 0
LINE
 8
001
 62
3
 10
42144.228000
 20
57016.252250
 11
42514.413000
 21
57886.252250
 0
LINE
 8
001
 62
3
 10
42569.728000
 20
57886.252250
 11
42939.913000
 21
57016.252250
 0
LINE
 8
001
 62
3
 10
42995.228000
 20
57016.252250
 11
43365.413000
 21
57886.252250
 0
LINE
 8
001
 6
CENTER
 62
3
 10
44074.491250
 20
58093.752250
 11
44074.491250
 21
56808.752250
 0
LINE
 8
001
 62
3
 10
44174.491250
 20
57016.252250
 11
44174.491250
 21
56951.252250
 0
LINE
 8
001
 62
3
 10
44174.491250
 20
57951.252250
 11
44174.491250
 21
57886.252250
 0
LINE
 8
001
 62
3
 10
43834.491250
 20
57886.252250
 11
43834.491250
 21
57016.252250
 0
LINE
 8
001
 62
3
 10
43399.491250
 20
57886.252250
 11
43399.491250
 21
57016.252250
 0
LINE
 8
001
 62
3
 10
43894.491250
 20
57886.252250
 11
43894.491250
 21
57016.252250
 0
LINE
 8
001
 62
3
 10
43834.491250
 20
57886.252250
 11
43834.491250
 21
57016.252250
 0
LINE
 8
001
 62
3
 10
43469.491250
 20
57886.252250
 11
43469.491250
 21
57016.252250
 0
LINE
 8
001
 62
3
 10
43493.216250
 20
57886.252250
 11
43810.766250
 21
57016.252250
 0
LINE
 8
001
 62
3
 10
43469.491250
 20
57112.171750
 11
43806.216250
 21
57886.252250
 0
LINE
 8
001
 62
3
 10
43918.241250
 20
57851.252250
 11
44230.741250
 21
57851.252250
 0
LINE
 8
001
 62
3
 10
43918.241250
 20
57051.252250
 11
44230.741250
 21
57051.252250
 0
LINE
 8
001
 62
3
 10
16591.530750
 20
57886.252250
 11
16591.530750
 21
57016.252250
 0
LINE
 8
001
 62
3
 10
22002.726750
 20
57886.252250
 11
22002.726750
 21
57016.252250
 0
LINE
 8
001
 62
3
 10
25888.109000
 20
12393.915500
 11
26088.109000
 21
12393.915500
 0
LINE
 8
001
 62
3
 10
26088.109000
 20
12410.915500
 11
26088.109000
 21
12393.915500
 0
LINE
 8
001
 62
3
 10
25888.109000
 20
12410.915500
 11
25888.109000
 21
12393.915500
 0
LINE
 8
001
 62
3
 10
25888.109000
 20
12376.915500
 11
26088.109000
 21
12376.915500
 0
LINE
 8
001
 62
3
 10
26088.109000
 20
12393.915500
 11
26088.109000
 21
12376.915500
 0
LINE
 8
001
 62
3
 10
25888.109000
 20
12393.915500
 11
25888.109000
 21
12376.915500
 0
ARC
 8
001
 62
3
 10
25960.609000
 20
12415.915500
 40
22.000000
 50
270.000000
 51
360.000000
 0
ARC
 8
001
 62
3
 10
26015.609000
 20
12415.915500
 40
22.000000
 50
180.000000
 51
270.000000
 0
LINE
 8
001
 62
3
 10
25888.109000
 20
12393.915500
 11
25960.609000
 21
12393.915500
 0
LINE
 8
001
 62
3
 10
26015.609000
 20
12393.915500
 11
26088.109000
 21
12393.915500
 0
LINE
 8
001
 62
3
 10
25888.109000
 20
12976.915500
 11
26088.109000
 21
12976.915500
 0
LINE
 8
001
 62
3
 10
26015.609000
 20
12959.915500
 11
26088.109000
 21
12959.915500
 0
LINE
 8
001
 62
3
 10
26088.109000
 20
12959.915500
 11
26088.109000
 21
12976.915500
 0
LINE
 8
001
 62
3
 10
25888.109000
 20
12959.915500
 11
25888.109000
 21
12976.915500
 0
LINE
 8
001
 62
3
 10
25888.109000
 20
12959.915500
 11
25960.609000
 21
12959.915500
 0
ARC
 8
001
 62
3
 10
25960.609000
 20
12937.915500
 40
22.000000
 50
0.000000
 51
90.000000
 0
ARC
 8
001
 62
3
 10
26015.609000
 20
12937.915500
 40
22.000000
 50
90.000000
 51
180.000000
 0
LINE
 8
001
 62
3
 10
25993.609000
 20
12415.915500
 11
25993.609000
 21
12937.915500
 0
LINE
 8
001
 62
3
 10
25982.609000
 20
12415.915500
 11
25982.609000
 21
12937.915500
 0
LINE
 8
001
 62
3
 10
25874.109000
 20
13089.915500
 11
25802.109000
 21
13089.915500
 0
LINE
 8
001
 62
3
 10
25881.410250
 20
13085.700000
 11
25881.410250
 21
13051.915500
 0
LINE
 8
001
 62
3
 10
25794.807750
 20
13085.700000
 11
25794.807750
 21
13051.915500
 0
LINE
 8
001
 62
3
 10
25816.458500
 20
13079.377000
 11
25816.458500
 21
13051.915500
 0
LINE
 8
001
 62
3
 10
25859.759750
 20
13079.377000
 11
25859.759750
 21
13051.915500
 0
LINE
 8
001
 62
3
 10
25874.109000
 20
13089.915500
 11
25881.410250
 21
13085.700000
 0
LINE
 8
001
 62
3
 10
25794.807750
 20
13085.700000
 11
25802.109000
 21
13089.915500
 0
ARC
 8
001
 62
3
 10
25870.585000
 20
13079.086250
 40
10.829250
 50
1.538344
 51
178.461656
 0
ARC
 8
001
 62
3
 10
25838.109000
 20
13062.406250
 40
27.509250
 50
38.090766
 51
141.909234
 0
ARC
 8
001
 62
3
 10
25805.633250
 20
13079.086250
 40
10.829250
 50
1.538344
 51
178.461656
 0
LINE
 8
001
 62
3
 10
25881.410250
 20
13051.915500
 11
25794.807750
 21
13051.915500
 0
LINE
 8
001
 62
3
 10
22124.109000
 20
13089.915500
 11
22052.109000
 21
13089.915500
 0
LINE
 8
001
 62
3
 10
22131.410250
 20
13085.700000
 11
22131.410250
 21
13051.915500
 0
LINE
 8
001
 62
3
 10
22044.807750
 20
13085.700000
 11
22044.807750
 21
13051.915500
 0
LINE
 8
001
 62
3
 10
22066.458500
 20
13079.377000
 11
22066.458500
 21
13051.915500
 0
LINE
 8
001
 62
3
 10
22109.759750
 20
13079.377000
 11
22109.759750
 21
13051.915500
 0
LINE
 8
001
 62
3
 10
22124.109000
 20
13089.915500
 11
22131.410250
 21
13085.700000
 0
LINE
 8
001
 62
3
 10
22044.807750
 20
13085.700000
 11
22052.109000
 21
13089.915500
 0
ARC
 8
001
 62
3
 10
22120.585000
 20
13079.086250
 40
10.829250
 50
1.538344
 51
178.461656
 0
ARC
 8
001
 62
3
 10
22088.109000
 20
13062.406250
 40
27.509250
 50
38.090766
 51
141.909234
 0
ARC
 8
001
 62
3
 10
22055.633250
 20
13079.086250
 40
10.829250
 50
1.538344
 51
178.461656
 0
LINE
 8
001
 62
3
 10
22131.410250
 20
13051.915500
 11
22044.807750
 21
13051.915500
 0
TEXT
 8
001
 62
3
 10
16351.917969
 20
69165.882812
 40
1500.000000
 1
ý~
 41
1.200000
 7
STANDARD
 0
LINE
 8
001
 62
3
 10
23774.356500
 20
66597.698750
 11
29024.356500
 21
66597.698750
 0
LINE
 8
001
 62
3
 10
33149.356500
 20
63597.698500
 11
33149.356500
 21
61347.698750
 0
LINE
 8
001
 62
3
 10
31274.356500
 20
64722.698750
 11
31274.356500
 21
61347.698750
 0
LINE
 8
001
 62
3
 10
35024.356500
 20
61347.698750
 11
35024.356500
 21
63222.698750
 0
TEXT
 8
001
 10
39527.756000
 20
35252.247750
 40
500.000000
 1
éiébékéOéRéOý~
 41
1.200000
 7
STANDARD
 0
TEXT
 8
001
 10
41342.469750
 20
30022.982500
 40
493.829987
 1
18.3(21.9)m/min
 41
0.754667
 7
STANDARD
 0
TEXT
 8
001
 10
41342.469750
 20
29364.546250
 40
493.829987
 1
10.3(12.3)m/min
 41
0.741333
 7
STANDARD
 0
TEXT
 8
001
 62
3
 10
21615.504391
 20
648.011843
 40
1250.000000
 1
ê╔ôíÆëîÜï@üièöüj
 41
1.200000
 7
STANDARD
 0
CIRCLE
 8
001
 10
41958.304688
 20
1745.186031
 40
250.000000
 0
TEXT
 8
001
 10
42425.770508
 20
1529.953094
 40
500.000000
 1
üièöüjûkÉýôSìHÅèü@éPéXéXéS
 41
1.200000
 7
STANDARD
 0
LINE
 8
001
 62
3
 10
14726.645750
 20
12997.151000
 11
14726.645750
 21
8497.151000
 0
LINE
 8
001
 62
3
 10
13710.645750
 20
12997.151000
 11
13710.645750
 21
8497.151000
 0
LINE
 8
001
 62
3
 10
14726.645750
 20
17497.151000
 11
14726.645750
 21
12997.151000
 0
LINE
 8
001
 62
3
 10
13710.645750
 20
17497.151000
 11
13710.645750
 21
12997.151000
 0
LINE
 8
001
 62
3
 10
14726.645750
 20
21997.151000
 11
14726.645750
 21
17497.151000
 0
LINE
 8
001
 62
3
 10
13710.645750
 20
21997.151000
 11
13710.645750
 21
17497.151000
 0
LINE
 8
001
 62
3
 10
14726.645750
 20
26497.151000
 11
14726.645750
 21
21997.151000
 0
LINE
 8
001
 62
3
 10
13710.645750
 20
26497.151000
 11
13710.645750
 21
21997.151000
 0
LINE
 8
001
 62
3
 10
14726.645750
 20
30997.151000
 11
14726.645750
 21
26497.151000
 0
LINE
 8
001
 62
3
 10
13710.645750
 20
30997.151000
 11
13710.645750
 21
26497.151000
 0
LINE
 8
001
 62
3
 10
14726.645750
 20
35497.151000
 11
14726.645750
 21
30997.151000
 0
LINE
 8
001
 62
3
 10
14726.645750
 20
35497.151000
 11
14726.645750
 21
38207.151000
 0
LINE
 8
001
 62
3
 10
13710.645750
 20
35497.151000
 11
13710.645750
 21
30997.151000
 0
LINE
 8
001
 62
3
 10
13710.645750
 20
35497.151000
 11
13710.645750
 21
38207.151000
 0
LINE
 8
001
 62
3
 10
36913.243375
 20
57886.252250
 11
44174.491250
 21
57886.252250
 0
LINE
 8
001
 62
3
 10
36913.243375
 20
57951.252250
 11
44174.491250
 21
57951.252250
 0
LINE
 8
001
 62
3
 10
36913.243375
 20
57016.252250
 11
44174.491250
 21
57016.252250
 0
LINE
 8
001
 62
3
 10
36913.243375
 20
56951.252250
 11
44174.491250
 21
56951.252250
 0
LINE
 8
001
 62
3
 10
31913.125875
 20
56951.252250
 11
36913.243375
 21
56951.252250
 0
LINE
 8
001
 62
3
 10
31913.125875
 20
57016.252250
 11
36913.243375
 21
57016.252250
 0
LINE
 8
001
 62
3
 10
31913.125875
 20
57886.252250
 11
36913.243375
 21
57886.252250
 0
LINE
 8
001
 62
3
 10
31913.125875
 20
57951.252250
 11
36913.243375
 21
57951.252250
 0
LINE
 8
001
 62
3
 10
25306.193125
 20
56951.252250
 11
31913.125875
 21
56951.252250
 0
LINE
 8
001
 62
3
 10
25306.193125
 20
57016.252250
 11
31913.125875
 21
57016.252250
 0
LINE
 8
001
 62
3
 10
25306.193125
 20
57886.252250
 11
31913.125875
 21
57886.252250
 0
LINE
 8
001
 62
3
 10
25306.193125
 20
57951.252250
 11
31913.125875
 21
57951.252250
 0
LINE
 8
001
 62
3
 10
18692.982000
 20
56951.252250
 11
25306.193125
 21
56951.252250
 0
LINE
 8
001
 62
3
 10
18692.982000
 20
56951.252250
 11
16217.185500
 21
56951.252250
 0
LINE
 8
001
 62
3
 10
18692.982000
 20
57016.252250
 11
25306.193125
 21
57016.252250
 0
LINE
 8
001
 62
3
 10
18692.982000
 20
57016.252250
 11
16217.185500
 21
57016.252250
 0
LINE
 8
001
 62
3
 10
18692.982000
 20
57886.252250
 11
25306.193125
 21
57886.252250
 0
LINE
 8
001
 62
3
 10
18692.982000
 20
57886.252250
 11
16217.185500
 21
57886.252250
 0
LINE
 8
001
 62
3
 10
18692.982000
 20
57951.252250
 11
25306.193125
 21
57951.252250
 0
LINE
 8
001
 62
3
 10
18692.982000
 20
57951.252250
 11
16217.185500
 21
57951.252250
 0
LINE
 8
100
 10
14218.645750
 20
36698.073000
 11
34255.305250
 21
36698.073000
 0
LINE
 8
100
 10
33755.305250
 20
36848.073000
 11
34255.305250
 21
36698.073000
 0
LINE
 8
100
 10
34255.305250
 20
36698.073000
 11
33755.305250
 21
36548.073000
 0
TEXT
 8
100
 10
30967.805250
 20
36823.073000
 40
775.000000
 1
20000
 41
0.840000
 7
STANDARD
 0
LINE
 8
100
 10
34255.305250
 20
51720.271250
 11
34255.305250
 21
36523.073000
 0
LINE
 8
100
 10
34255.305250
 20
51720.271250
 11
34255.305250
 21
36523.073000
 0
LINE
 8
100
 10
34255.305250
 20
36698.073000
 11
39218.645750
 21
36698.073000
 0
LINE
 8
100
 10
38718.645750
 20
36848.073000
 11
39218.645750
 21
36698.073000
 0
LINE
 8
100
 10
39218.645750
 20
36698.073000
 11
38718.645750
 21
36548.073000
 0
TEXT
 8
100
 10
35931.145750
 20
36823.073000
 40
775.000000
 1
25000
 41
0.880000
 7
STANDARD
 0
LINE
 8
100
 10
39218.645750
 20
44520.271250
 11
39218.645750
 21
36523.073000
 0
LINE
 8
100
 10
39218.645750
 20
44520.271250
 11
39218.645750
 21
36523.073000
 0
LINE
 8
100
 10
39218.645750
 20
36698.073000
 11
44260.491250
 21
36698.073000
 0
LINE
 8
100
 10
43760.491250
 20
36848.073000
 11
44260.491250
 21
36698.073000
 0
LINE
 8
100
 10
44260.491250
 20
36698.073000
 11
43760.491250
 21
36548.073000
 0
TEXT
 8
100
 10
40972.991250
 20
36823.073000
 40
775.000000
 1
30000
 41
0.840000
 7
STANDARD
 0
LINE
 8
100
 10
44260.491250
 20
45870.271250
 11
44260.491250
 21
36523.073000
 0
LINE
 8
100
 10
43309.781000
 20
51624.209000
 11
44074.491250
 21
48770.271250
 0
TEXT
 8
100
 10
35141.836500
 20
49430.122000
 40
775.000000
 1
28380
 50
15.000000
 41
0.960000
 7
STANDARD
 0
LINE
 8
100
 10
38349.670000
 20
50160.248750
 11
43343.506500
 21
51498.343250
 0
LINE
 8
100
 10
42821.720750
 20
51513.822750
 11
43343.506500
 21
51498.343250
 0
LINE
 8
100
 10
43343.506500
 20
51498.343250
 11
42899.366500
 21
51224.045000
 0
TEXT
 8
100
 10
40135.673000
 20
50768.216500
 40
775.000000
 1
33550
 50
15.000000
 41
0.960000
 7
STANDARD
 0
LINE
 8
100
 10
37827.884250
 20
50175.728250
 11
38349.670000
 21
50160.248750
 0
LINE
 8
100
 10
38307.716500
 20
50316.822000
 11
39218.645750
 21
46917.187250
 0
LINE
 8
100
 10
38349.670000
 20
50160.248750
 11
37905.530000
 21
49885.950500
 0
LINE
 8
100
 10
10937.661000
 20
42815.223250
 11
38349.670000
 21
50160.248750
 0
TEXT
 8
100
 10
21743.549250
 20
48344.873000
 40
775.000000
 1
26710
 50
33.000001
 41
0.890000
 7
STANDARD
 0
LINE
 8
100
 10
10973.962000
 20
41156.870250
 11
33374.852750
 21
55704.179000
 0
LINE
 8
100
 10
33960.609000
 20
54802.193750
 11
33279.541000
 21
55850.946250
 0
LINE
 8
100
 10
33374.852750
 20
55704.179000
 11
33037.213250
 21
55306.059000
 0
LINE
 8
100
 10
32873.821750
 20
55557.660000
 11
33374.852750
 21
55704.179000
 0
LINE
 8
100
 10
10118.645750
 20
45921.151000
 11
10118.645750
 21
50341.482500
 0
LINE
 8
100
 10
10118.645750
 20
50166.482500
 11
14218.645750
 21
50166.482500
 0
LINE
 8
100
 10
10618.645750
 20
50316.482750
 11
10118.645750
 21
50166.482500
 0
LINE
 8
100
 10
10118.645750
 20
50166.482500
 11
10618.645750
 21
50016.482500
 0
LINE
 8
100
 10
13718.645750
 20
50316.482750
 11
14218.645750
 21
50166.482500
 0
LINE
 8
100
 10
14218.645750
 20
50166.482500
 11
13718.645750
 21
50016.482500
 0
TEXT
 8
100
 10
11193.645750
 20
50291.482500
 40
775.000000
 1
4150
 41
0.862500
 7
STANDARD
 0
LINE
 8
100
 10
14218.645750
 20
41511.716250
 11
14218.645750
 21
50341.482500
 0
LINE
 8
100
 10
10406.739250
 20
46452.912500
 11
7567.195250
 21
46452.912500
 0
LINE
 8
100
 10
7742.195250
 20
46452.912500
 11
7742.195250
 21
38637.151000
 0
LINE
 8
100
 10
7892.195250
 20
45952.912500
 11
7742.195250
 21
46452.912500
 0
LINE
 8
100
 10
7742.195250
 20
46452.912500
 11
7592.195250
 21
45952.912500
 0
LINE
 8
100
 10
7892.195250
 20
39137.151000
 11
7742.195250
 21
38637.151000
 0
LINE
 8
100
 10
7742.195250
 20
38637.151000
 11
7592.195250
 21
39137.151000
 0
TEXT
 8
100
 10
7617.195250
 20
41570.031750
 40
775.000000
 1
7870
 50
90.000003
 41
0.950000
 7
STANDARD
 0
LINE
 8
100
 10
11168.645750
 20
38637.151000
 11
7567.195250
 21
38637.151000
 0
LINE
 8
100
 10
11168.645750
 20
38637.151000
 11
7567.195250
 21
38637.151000
 0
LINE
 8
100
 10
7742.195250
 20
38637.151000
 11
7742.195250
 21
7837.151000
 0
LINE
 8
100
 10
7892.195250
 20
38137.151000
 11
7742.195250
 21
38637.151000
 0
LINE
 8
100
 10
7742.195250
 20
38637.151000
 11
7592.195250
 21
38137.151000
 0
LINE
 8
100
 10
7892.195250
 20
8337.151000
 11
7742.195250
 21
7837.151000
 0
LINE
 8
100
 10
7742.195250
 20
7837.151000
 11
7592.195250
 21
8337.151000
 0
TEXT
 8
100
 10
7617.195250
 20
20049.651000
 40
775.000000
 1
ì┼æÕÄ®ùºìéé│éRéOéWéOéO
 50
90.000003
 41
1.200000
 7
STANDARD
 0
LINE
 8
100
 10
11518.645750
 20
7837.151000
 11
7567.195250
 21
7837.151000
 0
LINE
 8
100
 10
11518.645750
 20
7837.151000
 11
7567.195250
 21
7837.151000
 0
LINE
 8
100
 10
7742.195250
 20
8587.151000
 11
7742.195250
 21
5587.151000
 0
LINE
 8
100
 10
7892.195250
 20
8337.151000
 11
7742.195250
 21
7837.151000
 0
LINE
 8
100
 10
7742.195250
 20
7837.151000
 11
7592.195250
 21
8337.151000
 0
TEXT
 8
100
 10
7617.195250
 20
6112.151000
 40
775.000000
 1
1500
 50
90.000003
 41
0.812500
 7
STANDARD
 0
LINE
 8
100
 10
12712.370500
 20
8627.151000
 11
9456.409750
 21
8627.151000
 0
LINE
 8
100
 10
9631.409750
 20
12065.736000
 11
9631.409750
 21
7837.151000
 0
LINE
 8
100
 10
9781.409750
 20
9127.151000
 11
9631.409750
 21
8627.151000
 0
LINE
 8
100
 10
9631.409750
 20
8627.151000
 11
9481.409750
 21
9127.151000
 0
CIRCLE
 8
100
 10
9631.409750
 20
7837.151000
 40
125.000000
 0
TEXT
 8
100
 10
9558.057500
 20
9215.736000
 40
775.000000
 1
790
 50
90.000003
 41
0.933333
 7
STANDARD
 0
TEXT
 8
100
 10
8858.057500
 20
10728.236000
 40
700.000000
 1
+10
 50
90.000003
 41
0.816667
 7
STANDARD
 0
TEXT
 8
100
 10
9558.057500
 20
10728.236000
 40
700.000000
 1
 0
 50
90.000003
 41
0.600000
 7
STANDARD
 0
LINE
 8
100
 10
11518.645750
 20
7837.151000
 11
9456.409750
 21
7837.151000
 0
LINE
 8
100
 10
11518.645750
 20
7837.151000
 11
9456.409750
 21
7837.151000
 0
LINE
 8
100
 10
9631.409750
 20
7837.151000
 11
9631.409750
 21
4215.528000
 0
CIRCLE
 8
100
 10
9631.409750
 20
7837.151000
 40
125.000000
 0
LINE
 8
100
 10
10549.249250
 20
21186.086000
 11
9232.737250
 21
21186.086000
 0
LINE
 8
100
 10
9407.737250
 20
21936.086000
 11
9407.737250
 21
19686.086000
 0
LINE
 8
100
 10
9557.737250
 20
21686.086000
 11
9407.737250
 21
21186.086000
 0
LINE
 8
100
 10
9407.737250
 20
21186.086000
 11
9257.737250
 21
21686.086000
 0
LINE
 8
100
 10
9557.737250
 20
19936.086000
 11
9407.737250
 21
20436.086000
 0
LINE
 8
100
 10
9407.737250
 20
20436.086000
 11
9257.737250
 21
19936.086000
 0
TEXT
 8
100
 10
9282.737250
 20
20098.586000
 40
775.000000
 1
750
 50
90.000003
 41
0.933333
 7
STANDARD
 0
LINE
 8
100
 10
10549.249250
 20
20436.086000
 11
9232.737250
 21
20436.086000
 0
LINE
 8
100
 10
9697.779250
 20
18059.170250
 11
11947.779250
 21
18059.170250
 0
TEXT
 8
100
 10
8743.718250
 20
16919.291000
 40
750.000000
 1
üiÅ©ì~î¹üj
 41
1.200000
 7
STANDARD
 0
LINE
 8
100
 10
8561.857250
 20
22229.632500
 11
11724.249250
 21
22229.632500
 0
TEXT
 8
100
 10
8636.857250
 20
22281.179750
 40
775.000000
 1
450
 41
0.933333
 7
STANDARD
 0
CIRCLE
 8
100
 10
10937.661000
 20
42815.223250
 40
125.000000
 0
LINE
 8
100
 10
11616.882000
 20
40280.336250
 11
10892.367750
 21
42984.260250
 0
LINE
 8
100
 10
11559.718000
 20
40254.885000
 11
10878.650000
 21
41303.637750
 0
LINE
 8
100
 10
10973.962000
 20
41156.870250
 11
11474.993000
 21
41303.389250
 0
LINE
 8
100
 10
11311.601250
 20
41554.990500
 11
10973.962000
 21
41156.870250
 0
LINE
 8
100
 10
11368.645750
 20
38437.151000
 11
11368.645750
 21
36523.073000
 0
LINE
 8
100
 10
10618.645750
 20
36698.073000
 11
14968.645750
 21
36698.073000
 0
LINE
 8
100
 10
10868.645750
 20
36848.073000
 11
11368.645750
 21
36698.073000
 0
LINE
 8
100
 10
11368.645750
 20
36698.073000
 11
10868.645750
 21
36548.073000
 0
TEXT
 8
100
 10
11579.285500
 20
36801.931000
 40
775.000000
 1
2865
 41
1.000000
 7
STANDARD
 0
CIRCLE
 8
100
 10
14218.645750
 20
36698.073000
 40
125.000000
 0
LINE
 8
100
 10
14218.645750
 20
36698.073000
 11
14718.645750
 21
36548.073000
 0
LINE
 8
100
 10
14718.645750
 20
36848.073000
 11
14218.645750
 21
36698.073000
 0
LINE
 8
100
 10
14926.645750
 20
39997.151000
 11
18134.603500
 21
39997.151000
 0
LINE
 8
100
 10
17959.603500
 20
40747.151000
 11
17959.603500
 21
36656.710250
 0
LINE
 8
100
 10
18109.603500
 20
40497.151000
 11
17959.603500
 21
39997.151000
 0
LINE
 8
100
 10
17959.603500
 20
39997.151000
 11
17809.603500
 21
40497.151000
 0
LINE
 8
100
 10
18109.603500
 20
38137.151000
 11
17959.603500
 21
38637.151000
 0
LINE
 8
100
 10
17959.603500
 20
38637.151000
 11
17809.603500
 21
38137.151000
 0
TEXT
 8
100
 10
17877.844750
 20
36731.710500
 40
775.000000
 1
1360
 50
90.000003
 41
0.862500
 7
STANDARD
 0
LINE
 8
100
 10
15818.645750
 20
38637.151000
 11
18134.603500
 21
38637.151000
 0
LINE
 8
100
 10
11668.645750
 20
40087.151000
 11
21619.770500
 21
40087.151000
 0
LINE
 8
100
 10
14926.645750
 20
39997.151000
 11
19966.083500
 21
39997.151000
 0
LINE
 8
100
 10
19791.083500
 20
39997.151000
 11
19791.083500
 21
8497.151000
 0
LINE
 8
100
 10
19941.083500
 20
39497.151000
 11
19791.083500
 21
39997.151000
 0
LINE
 8
100
 10
19791.083500
 20
39997.151000
 11
19641.083500
 21
39497.151000
 0
LINE
 8
100
 10
20633.974250
 20
39601.698000
 11
20825.900000
 21
40087.151000
 0
LINE
 8
100
 10
20825.900000
 20
40087.151000
 11
20932.890000
 21
39576.217500
 0
LINE
 8
100
 10
19823.407750
 20
42181.729750
 11
20973.773000
 21
42489.969250
 0
LINE
 8
100
 10
14218.645750
 20
41311.716250
 11
14218.645750
 21
5726.943000
 0
TEXT
 8
100
 10
19666.083500
 20
21109.651000
 40
775.000000
 1
éSéTéOéOü~éVüüéRéPéTéOéO
 50
90.000003
 41
1.200000
 7
STANDARD
 0
LINE
 8
100
 10
10024.249250
 20
22379.632500
 11
10524.249250
 21
22229.632500
 0
LINE
 8
100
 10
10524.249250
 20
22229.632500
 11
10024.249250
 21
22079.632500
 0
LINE
 8
100
 10
10524.249250
 20
21161.086000
 11
10524.249250
 21
22404.632500
 0
LINE
 8
100
 10
10974.249250
 20
21161.086000
 11
10974.249250
 21
22404.632500
 0
LINE
 8
100
 10
11474.249250
 20
22379.632500
 11
10974.249250
 21
22229.632500
 0
LINE
 8
100
 10
10974.249250
 20
22229.632500
 11
11474.249250
 21
22079.632500
 0
LINE
 8
100
 10
10749.249250
 20
24416.981000
 11
10749.249250
 21
19296.066750
 0
LINE
 8
100
 10
10121.141000
 20
20811.086000
 11
11348.651250
 21
20811.086000
 0
TEXT
 8
100
 10
10172.779250
 20
18184.170250
 40
775.000000
 1
B-
 41
1.000000
 7
STANDARD
 0
LINE
 8
100
 10
7892.195250
 20
5837.151000
 11
7742.195250
 21
6337.151000
 0
LINE
 8
100
 10
7742.195250
 20
6337.151000
 11
7592.195250
 21
5837.151000
 0
LINE
 8
100
 10
11518.645750
 20
6337.151000
 11
7567.195250
 21
6337.151000
 0
LINE
 8
100
 10
9781.409750
 20
6327.151000
 11
9631.409750
 21
6827.151000
 0
LINE
 8
100
 10
9631.409750
 20
6827.151000
 11
9481.409750
 21
6327.151000
 0
TEXT
 8
100
 10
9526.786500
 20
4290.528000
 40
775.000000
 1
1010
 50
90.000003
 41
0.725000
 7
STANDARD
 0
LINE
 8
100
 10
12468.645750
 20
6827.151000
 11
9456.409750
 21
6827.151000
 0
TEXT
 8
100
 10
11533.839000
 20
8971.426250
 40
750.000000
 1
B
 41
1.000000
 7
STANDARD
 0
LINE
 8
100
 10
12050.940750
 20
9372.151000
 11
13028.016750
 21
9372.151000
 0
LINE
 8
100
 10
12528.016750
 20
9522.151000
 11
13028.016750
 21
9372.151000
 0
LINE
 8
100
 10
13028.016750
 20
9372.151000
 11
12528.016750
 21
9222.151000
 0
LINE
 8
100
 10
13028.016750
 20
9872.151000
 11
13028.016750
 21
8872.151000
 0
LINE
 8
100
 10
15068.645750
 20
8497.151000
 11
19966.083500
 21
8497.151000
 0
LINE
 8
100
 10
15068.645750
 20
8497.151000
 11
19966.083500
 21
8497.151000
 0
LINE
 8
100
 10
16918.645750
 20
7837.151000
 11
19966.083500
 21
7837.151000
 0
LINE
 8
100
 10
15068.645750
 20
8497.151000
 11
18134.603500
 21
8497.151000
 0
LINE
 8
100
 10
17959.603500
 20
8497.151000
 11
17959.603500
 21
12997.151000
 0
LINE
 8
100
 10
17809.603500
 20
8997.151000
 11
17959.603500
 21
8497.151000
 0
LINE
 8
100
 10
17959.603500
 20
8497.151000
 11
18109.603500
 21
8997.151000
 0
LINE
 8
100
 10
17809.603500
 20
12497.151000
 11
17959.603500
 21
12997.151000
 0
LINE
 8
100
 10
17959.603500
 20
12997.151000
 11
18109.603500
 21
12497.151000
 0
TEXT
 8
100
 10
17834.603500
 20
9772.151000
 40
775.000000
 1
4500
 50
90.000003
 41
0.900000
 7
STANDARD
 0
LINE
 8
100
 10
14926.645750
 20
12997.151000
 11
18134.603500
 21
12997.151000
 0
LINE
 8
100
 10
15583.645750
 20
8315.738250
 11
17440.531750
 21
4956.931750
 0
TEXT
 8
100
 10
17875.031500
 20
5081.931750
 40
700.000000
 1
éléSéWü~éPéWéOéOü|éPéUû{
 41
1.200000
 7
STANDARD
 0
LINE
 8
100
 10
21574.033750
 20
11731.402750
 11
15761.740750
 21
8666.011000
 0
LINE
 8
100
 10
15866.192250
 20
9994.121500
 11
16056.425250
 21
10516.782750
 0
LINE
 8
100
 10
16056.425250
 20
10516.782750
 11
15727.323750
 21
10636.566000
 0
TEXT
 8
100
 10
15883.311250
 20
10761.139750
 40
750.000000
 1
A
 41
1.000000
 7
STANDARD
 0
LINE
 8
100
 10
15456.415500
 20
10745.379000
 11
15866.192250
 21
10745.379000
 0
LINE
 8
100
 10
15866.192250
 20
10745.379000
 11
15866.192250
 21
9994.121500
 0
LINE
 8
100
 10
19941.083500
 20
8997.151000
 11
19791.083500
 21
8497.151000
 0
LINE
 8
100
 10
19791.083500
 20
8497.151000
 11
19641.083500
 21
8997.151000
 0
LINE
 8
100
 10
19791.083500
 20
9247.151000
 11
19791.083500
 21
5932.497000
 0
LINE
 8
100
 10
19941.083500
 20
8997.151000
 11
19791.083500
 21
8497.151000
 0
LINE
 8
100
 10
19791.083500
 20
8497.151000
 11
19641.083500
 21
8997.151000
 0
LINE
 8
100
 10
19941.083500
 20
7337.151000
 11
19791.083500
 21
7837.151000
 0
LINE
 8
100
 10
19791.083500
 20
7837.151000
 11
19641.083500
 21
7337.151000
 0
TEXT
 8
100
 10
19722.686500
 20
6007.497000
 40
775.000000
 1
660
 50
90.000003
 41
0.933333
 7
STANDARD
 0
LINE
 8
100
 10
17440.531750
 20
4956.931750
 11
23620.031750
 21
4956.931750
 0
LINE
 8
100
 10
17465.157500
 20
4045.802000
 11
19044.657500
 21
4045.802000
 0
TEXT
 8
100
 10
17899.657500
 20
4170.802000
 40
700.000000
 1
è¯æb
 41
1.200000
 7
STANDARD
 0
TEXT
 8
100
 10
17825.782000
 20
3259.672250
 40
700.000000
 1
%%12922,@300
 41
0.870000
 7
STANDARD
 0
LINE
 8
100
 10
15770.117750
 20
6337.151000
 11
17465.157500
 21
4045.802000
 0
LINE
 8
100
 10
14545.246750
 20
6552.102750
 11
17391.282000
 21
3134.672250
 0
CIRCLE
 8
100
 10
15510.595000
 20
8501.919750
 40
300.000000
 0
LINE
 8
100
 10
15956.833500
 20
7950.730250
 11
15583.645750
 21
8315.738250
 0
LINE
 8
100
 10
15583.645750
 20
8315.738250
 11
15694.284500
 21
7805.582250
 0
LINE
 8
100
 10
14545.246750
 20
6552.102750
 11
14749.954500
 21
6071.900000
 0
LINE
 8
100
 10
14980.481500
 20
6263.882750
 11
14545.246750
 21
6552.102750
 0
LINE
 8
100
 10
15770.117750
 20
6337.151000
 11
15946.885500
 21
5845.975750
 0
LINE
 8
100
 10
16188.066250
 20
6024.390750
 11
15770.117750
 21
6337.151000
 0
LINE
 8
100
 10
17391.282000
 20
3134.672250
 11
21575.782000
 21
3134.672250
 0
TEXT
 8
100
 10
20334.566500
 20
11197.743750
 40
500.000000
 1
Å┌ìÎ
 50
27.807076
 41
1.200000
 7
STANDARD
 0
LINE
 8
100
 10
21574.033750
 20
11731.402750
 11
21061.797750
 21
11630.833250
 0
LINE
 8
100
 10
21201.746500
 20
11365.476250
 11
21574.033750
 21
11731.402750
 0
LINE
 8
100
 10
22778.157250
 20
15104.398500
 11
22778.157250
 21
12976.915500
 0
LINE
 8
100
 10
22312.109000
 20
13147.915500
 11
24692.353000
 21
13147.915500
 0
LINE
 8
100
 10
24517.353000
 20
13897.915500
 11
24517.353000
 21
9201.578250
 0
LINE
 8
100
 10
24667.353000
 20
13647.915500
 11
24517.353000
 21
13147.915500
 0
LINE
 8
100
 10
24517.353000
 20
13147.915500
 11
24367.353000
 21
13647.915500
 0
LINE
 8
100
 10
24667.353000
 20
11857.915500
 11
24517.353000
 21
12357.915500
 0
LINE
 8
100
 10
24517.353000
 20
12357.915500
 11
24367.353000
 21
11857.915500
 0
TEXT
 8
100
 10
24434.513750
 20
9276.578000
 40
775.000000
 1
790
 50
90.000003
 41
0.933333
 7
STANDARD
 0
TEXT
 8
100
 10
23734.513750
 20
10789.078000
 40
700.000000
 1
+10
 50
90.000003
 41
0.816667
 7
STANDARD
 0
TEXT
 8
100
 10
24434.513750
 20
10789.078000
 40
700.000000
 1
 0
 50
90.000003
 41
0.600000
 7
STANDARD
 0
LINE
 8
100
 10
22313.109000
 20
12357.915500
 11
24692.353000
 21
12357.915500
 0
LINE
 8
100
 10
22312.109000
 20
13147.915500
 11
22953.157250
 21
13147.915500
 0
LINE
 8
100
 10
22928.157250
 20
13647.915500
 11
22778.157250
 21
13147.915500
 0
CIRCLE
 8
100
 10
22778.157250
 20
12976.915500
 40
125.000000
 0
LINE
 8
100
 10
22368.109000
 20
12976.915500
 11
22953.157250
 21
12976.915500
 0
LINE
 8
100
 10
22368.109000
 20
12976.915500
 11
22953.157250
 21
12976.915500
 0
CIRCLE
 8
100
 10
22778.157250
 20
12976.915500
 40
125.000000
 0
LINE
 8
100
 10
22928.157250
 20
11857.915500
 11
22778.157250
 21
12357.915500
 0
LINE
 8
100
 10
22313.109000
 20
12357.915500
 11
22953.157250
 21
12357.915500
 0
LINE
 8
100
 10
22778.157250
 20
13147.915500
 11
22628.157250
 21
13647.915500
 0
TEXT
 8
100
 10
22707.375500
 20
13604.398500
 40
775.000000
 1
171
 50
90.000003
 41
0.766667
 7
STANDARD
 0
LINE
 8
100
 10
22778.157250
 20
12976.915500
 11
22778.157250
 21
10384.689750
 0
LINE
 8
100
 10
22778.157250
 20
12357.915500
 11
22628.157250
 21
11857.915500
 0
TEXT
 8
100
 10
22717.487750
 20
10459.689750
 40
775.000000
 1
619
 50
90.000003
 41
0.883333
 7
STANDARD
 0
LINE
 8
100
 10
25838.109000
 20
13365.028250
 11
25838.109000
 21
14006.542500
 0
LINE
 8
100
 10
25088.109000
 20
13831.542500
 11
26934.255250
 21
13831.542500
 0
LINE
 8
100
 10
25338.109000
 20
13981.542500
 11
25838.109000
 21
13831.542500
 0
LINE
 8
100
 10
25838.109000
 20
13831.542500
 11
25338.109000
 21
13681.542500
 0
LINE
 8
100
 10
26638.109000
 20
13981.542500
 11
26138.109000
 21
13831.542500
 0
LINE
 8
100
 10
26138.109000
 20
13831.542500
 11
26638.109000
 21
13681.542500
 0
TEXT
 8
100
 10
25434.255250
 20
13994.538250
 40
775.000000
 1
300
 41
0.866667
 7
STANDARD
 0
LINE
 8
100
 10
26138.109000
 20
13365.028250
 11
26138.109000
 21
14006.542500
 0
TEXT
 8
100
 10
27679.945500
 20
13530.682000
 40
500.000000
 1
éléSéWü~éPéWéOéO
 41
1.200000
 7
STANDARD
 0
LINE
 8
100
 10
26143.824000
 20
12732.118250
 11
27374.438500
 21
14158.667000
 0
LINE
 8
100
 10
27374.438500
 20
14158.667000
 11
30564.438500
 21
14158.667000
 0
TEXT
 8
100
 10
27684.438500
 20
14283.667000
 40
500.000000
 1
âAâôâJü[â{âïâg
 41
1.200000
 7
STANDARD
 0
LINE
 8
100
 10
26143.824000
 20
12732.118250
 11
26583.999000
 21
13012.735250
 0
LINE
 8
100
 10
26356.841500
 20
13208.693000
 11
26143.824000
 21
12732.118250
 0
LINE
 8
100
 10
33445.472750
 20
9298.988750
 11
33445.472750
 21
12798.988750
 0
LINE
 8
100
 10
30962.609750
 20
13054.644250
 11
29689.817500
 21
11781.852000
 0
LINE
 8
100
 10
32526.234000
 20
10418.227500
 11
32526.234000
 21
13054.137250
 0
LINE
 8
100
 10
32526.234000
 20
12879.137250
 11
34364.711500
 21
12879.137250
 0
LINE
 8
100
 10
33026.234000
 20
13029.137250
 11
32526.234000
 21
12879.137250
 0
LINE
 8
100
 10
32526.234000
 20
12879.137250
 11
33026.234000
 21
12729.137250
 0
LINE
 8
100
 10
33864.711500
 20
13029.137250
 11
34364.711500
 21
12879.137250
 0
LINE
 8
100
 10
34364.711500
 20
12879.137250
 11
33864.711500
 21
12729.137250
 0
TEXT
 8
100
 10
32470.472750
 20
13004.137250
 40
775.000000
 1
1838
 41
0.912500
 7
STANDARD
 0
LINE
 8
100
 10
34364.711500
 20
10418.227500
 11
34364.711500
 21
13054.137250
 0
LINE
 8
100
 10
30945.472750
 20
11998.988750
 11
30945.472750
 21
14998.548000
 0
LINE
 8
100
 10
30945.472750
 20
14823.548000
 11
35945.472750
 21
14823.548000
 0
LINE
 8
100
 10
31445.472750
 20
14973.548000
 11
30945.472750
 21
14823.548000
 0
LINE
 8
100
 10
30945.472750
 20
14823.548000
 11
31445.472750
 21
14673.548000
 0
LINE
 8
100
 10
35445.472750
 20
14973.548000
 11
35945.472750
 21
14823.548000
 0
LINE
 8
100
 10
35945.472750
 20
14823.548000
 11
35445.472750
 21
14673.548000
 0
TEXT
 8
100
 10
32145.472750
 20
14948.548000
 40
775.000000
 1
üáéTéOéOéO
 41
1.200000
 7
STANDARD
 0
LINE
 8
100
 10
35945.472750
 20
11998.988750
 11
35945.472750
 21
14998.548000
 0
LINE
 8
100
 10
32262.836750
 20
10384.640000
 11
32262.836750
 21
14082.215500
 0
LINE
 8
100
 10
31512.836750
 20
13907.215500
 11
35378.108750
 21
13907.215500
 0
LINE
 8
100
 10
31762.836750
 20
14057.215500
 11
32262.836750
 21
13907.215500
 0
LINE
 8
100
 10
32262.836750
 20
13907.215500
 11
31762.836750
 21
13757.215500
 0
LINE
 8
100
 10
35128.108750
 20
14057.215500
 11
34628.108750
 21
13907.215500
 0
LINE
 8
100
 10
34628.108750
 20
13907.215500
 11
35128.108750
 21
13757.215500
 0
TEXT
 8
100
 10
32470.472750
 20
14032.215500
 40
775.000000
 1
2365
 41
1.000000
 7
STANDARD
 0
LINE
 8
100
 10
34628.108750
 20
10384.640000
 11
34628.108750
 21
14082.215500
 0
LINE
 8
100
 10
33445.472750
 20
9298.988750
 11
36945.472750
 21
9298.988750
 0
TEXT
 8
100
 10
37795.822750
 20
7909.361250
 40
750.000000
 1
âNâëâCâ~âôâOÄ×âWâuò¹î³
 41
1.200000
 7
STANDARD
 0
TEXT
 8
100
 10
38796.082250
 20
5138.613000
 40
750.000000
 1
é`ü[ü@âxü[âXâtâîü[âÇ
 41
1.200000
 7
STANDARD
 0
LINE
 8
100
 10
37187.386500
 20
9298.988750
 11
38716.582500
 21
9298.988750
 0
LINE
 8
100
 10
37958.766000
 20
9502.045000
 11
38716.582500
 21
9298.988750
 0
LINE
 8
100
 10
37958.766000
 20
9095.932500
 11
38716.582500
 21
9298.988750
 0
TEXT
 8
100
 10
37037.368500
 20
11240.364500
 40
550.000000
 1
Ænæ¤ù═
 41
1.200000
 7
STANDARD
 0
LINE
 8
100
 10
32611.086750
 20
8040.338750
 11
36551.827000
 21
4099.598500
 0
LINE
 8
100
 10
35897.753250
 20
3693.012000
 11
39051.449500
 21
6846.708250
 0
LINE
 8
100
 10
38768.606750
 20
6775.997750
 11
38521.119250
 21
6316.378250
 0
LINE
 8
100
 10
38521.119250
 20
6316.378250
 11
38980.738750
 21
6563.865750
 0
TEXT
 8
100
 10
36696.783750
 20
4668.819500
 40
775.000000
 1
2960
 50
45.000001
 41
0.950000
 7
STANDARD
 0
LINE
 8
100
 10
34704.122750
 20
10133.374750
 11
38644.863000
 21
6192.634500
 0
LINE
 8
100
 10
34506.133000
 20
10076.806250
 11
37736.420500
 21
6846.518750
 0
LINE
 8
100
 10
37612.676750
 20
6970.262250
 11
35774.199250
 21
5131.784750
 0
LINE
 8
100
 10
37365.189500
 20
6510.643000
 11
37612.676750
 21
6970.262250
 0
LINE
 8
100
 10
37612.676750
 20
6970.262250
 11
37153.057500
 21
6722.775000
 0
TEXT
 8
100
 10
35915.620500
 20
5449.982750
 40
775.000000
 1
2600
 50
45.000001
 41
0.900000
 7
STANDARD
 0
TEXT
 8
100
 10
37379.502531
 20
10582.945383
 40
550.000000
 1
ÆÀè·éPéOéöü^Ù¥
 41
1.200000
 7
STANDARD
 0
TEXT
 8
100
 10
37379.502531
 20
9880.231383
 40
550.000000
 1
ÆZè·éQéOéöü^Ù¥
 41
1.200000
 7
STANDARD
 0
LINE
 8
100
 10
33445.472750
 20
9298.988750
 11
33445.472750
 21
5798.988750
 0
LINE
 8
100
 10
35968.464000
 20
3975.854750
 11
36428.083250
 21
4223.342250
 0
LINE
 8
100
 10
36428.083250
 20
4223.342250
 11
36180.596000
 21
3763.722750
 0
LINE
 8
100
 10
36233.818750
 20
5379.272000
 11
35774.199250
 21
5131.784750
 0
LINE
 8
100
 10
35774.199250
 20
5131.784750
 11
36021.686500
 21
5591.404000
 0
LINE
 8
100
 10
32667.655250
 20
8238.328500
 11
35897.943000
 21
5008.041000
 0
LINE
 8
100
 10
33445.472750
 20
9298.988750
 11
29945.472750
 21
9298.988750
 0
LINE
 8
100
 10
29699.681750
 20
8593.757000
 11
30901.763250
 21
7391.675500
 0
TEXT
 8
100
 10
41996.954500
 20
10364.498250
 40
550.000000
 1
éãéÁé¢ÅÛìçé╠òWÅÇè¯æb
 41
1.200000
 7
STANDARD
 0
LINE
 8
100
 10
14218.645750
 20
59291.014000
 11
14218.645750
 21
55442.777250
 0
LINE
 8
100
 10
14218.645750
 20
59491.014000
 11
14218.645750
 21
60436.775750
 0
LINE
 8
100
 10
13468.645750
 20
60261.775750
 11
16368.645750
 21
60261.775750
 0
LINE
 8
100
 10
13718.645750
 20
60411.775750
 11
14218.645750
 21
60261.775750
 0
LINE
 8
100
 10
14218.645750
 20
60261.775750
 11
13718.645750
 21
60111.775750
 0
LINE
 8
100
 10
16118.645750
 20
60411.775750
 11
15618.645750
 21
60261.775750
 0
LINE
 8
100
 10
15618.645750
 20
60261.775750
 11
16118.645750
 21
60111.775750
 0
TEXT
 8
100
 10
13943.645750
 20
60386.775750
 40
775.000000
 1
1400
 41
0.812500
 7
STANDARD
 0
LINE
 8
100
 10
15618.645750
 20
58441.252250
 11
15618.645750
 21
60436.775750
 0
LINE
 8
100
 10
9639.520250
 20
57451.252250
 11
44638.416500
 21
57451.252250
 0
LINE
 8
100
 10
14218.645750
 20
57451.252250
 11
7774.622000
 21
60285.148500
 0
TEXT
 8
100
 10
7873.565500
 20
60323.830250
 40
775.000000
 1
R4250
 50
336.261496
 41
0.960000
 7
STANDARD
 0
LINE
 8
100
 10
11263.645750
 20
55751.252250
 11
7567.195250
 21
55751.252250
 0
LINE
 8
100
 10
7742.195250
 20
55001.252250
 11
7742.195250
 21
57451.252250
 0
LINE
 8
100
 10
7592.195250
 20
55251.252250
 11
7742.195250
 21
55751.252250
 0
LINE
 8
100
 10
7742.195250
 20
55751.252250
 11
7892.195250
 21
55251.252250
 0
CIRCLE
 8
100
 10
7742.195250
 20
57451.252250
 40
125.000000
 0
TEXT
 8
100
 10
7570.015500
 20
55201.419250
 40
775.000000
 1
1700
 50
90.000003
 41
0.812500
 7
STANDARD
 0
LINE
 8
100
 10
9439.520250
 20
57451.252250
 11
7567.195250
 21
57451.252250
 0
LINE
 8
100
 10
9439.520250
 20
57451.252250
 11
7567.195250
 21
57451.252250
 0
LINE
 8
100
 10
7742.195250
 20
57451.252250
 11
7742.195250
 21
59686.130000
 0
CIRCLE
 8
100
 10
7742.195250
 20
57451.252250
 40
125.000000
 0
LINE
 8
100
 10
7592.195250
 20
59221.252250
 11
7742.195250
 21
58721.252250
 0
LINE
 8
100
 10
7742.195250
 20
58721.252250
 11
7892.195250
 21
59221.252250
 0
TEXT
 8
100
 10
7594.613000
 20
57661.130000
 40
775.000000
 1
1270
 50
90.000003
 41
0.862500
 7
STANDARD
 0
LINE
 8
100
 10
11418.645750
 20
58721.252250
 11
7567.195250
 21
58721.252250
 0
ARC
 8
100
 10
14218.645750
 20
57451.252250
 40
4195.000000
 50
145.106833
 51
194.241322
 0
LINE
 8
100
 10
10775.887250
 20
58801.414250
 11
10378.575500
 21
59140.004750
 0
LINE
 8
100
 10
10378.575500
 20
59140.004750
 11
10896.656000
 21
59076.032000
 0
TEXT
 8
100
 10
36302.945169
 20
1497.120454
 40
500.000000
 1
Copyrightc
 41
0.930000
 7
STANDARD
 0
ENDSEC
 0
EOF
